bt.etree.org
etree.org Community Bittorrent Tracker
ArtistTrey Anastasio
ShowTrey Anastasio Band 2013-01-20 State Theater Portland, ME Schoeps 4 channel mix (mk41/mk22)>Sonosax SX-R4**16bit**
Report this as
non-Trade-Friendly
Email us
Torrenttab2013-01-20_mk41mk22mix_1644_FLAC.torrent (click to download)
Downloads astab2013-01-20_mk41mk22mix_1644_FLAC
Info hashb0775bc316f001ed381b30ee8ea26ba6faa31a2d
db linkhttp://db.etree.org/shn/123548 | Show | Source
DescriptionTrey Anastasio Band
2013-01-20
State Theater
Portland, ME

Mics were right of center next to the foh.
mk41s were DIN/mk22s were 21cm/110 degrees

Source: Schoeps MK41/MK22>KC5>CMC6>Sonosax SX-R4(24bit/96khz)

Lineage: WAV>USB>Macbook Pro>Audacity(mixing)>Wave Editor(tracking,fades,resample(izotope)/dither(mbit+)to 16 bit/44.1k)>XAct(FLAC 8,ffp,fix sbe)

Taped by: Andy Murray
Transferred by: Andy Murray

Set One:

01 Crowd
02 Cayman Review
03 Alive Again
04 Pigtail
05 Magilla
06 Scabbard
07 Frost
08 Corona
09 Burlap Sack And Pumps
10 Where Ever You Find It
11 Land Of Nod
12 Dark And Down
13 Valentine
14 band intros/banter
15 First Tube

Set Two:

01 Crowd
02 Curlew's Call
03 Drifting
04 Money Love And Change
05 Ooh Child
06 Goodbye Head
07 Architect
08 Sand
09 Clint Eastwood
10 The Devil Went Down To Georgia
11 Push On Till The Day
12 encore break

Encore:
13 At The Gazebo
14 Heavy Things
15 Sultans Of Swing

;flac fingerprints generated by xACT 2.21 on 2013-01-21 20:04:56 -0500

tab2013-01-20_mk41mk22mix_1644_d1t01.flac:bf7ab08c50709c70db176ca097123418
tab2013-01-20_mk41mk22mix_1644_d1t02.flac:452c9bfbba4102ce142f8c4140b51781
tab2013-01-20_mk41mk22mix_1644_d1t03.flac:c803fa5ce7f1379e96ff5a4a1df9f6d6
tab2013-01-20_mk41mk22mix_1644_d1t04.flac:89a69fc1dac3bbd0f3038fe1b71217dc
tab2013-01-20_mk41mk22mix_1644_d1t05.flac:bebc3c8797441d40b6388b8f677c34f2
tab2013-01-20_mk41mk22mix_1644_d1t06.flac:c5412fe71f3c59a9acd50d7de50b326e
tab2013-01-20_mk41mk22mix_1644_d1t07.flac:6c659308a8af8b4841c807478def6edf
tab2013-01-20_mk41mk22mix_1644_d1t08.flac:ea0a9cc46d12f5a91d54bc14e81a4b4f
tab2013-01-20_mk41mk22mix_1644_d1t09.flac:39dc2a4845e2eb76a7a097c72100bdb5
tab2013-01-20_mk41mk22mix_1644_d1t10.flac:e1f541b776ab2a319f646fa75676ccc4
tab2013-01-20_mk41mk22mix_1644_d1t11.flac:54bd6e01f3640ea17208e26089771a0c
tab2013-01-20_mk41mk22mix_1644_d1t12.flac:dfd5d250561c4f8878f75784d0db91ef
tab2013-01-20_mk41mk22mix_1644_d1t13.flac:bb02a73bcad7db4708d6a6ab5d6c0c6f
tab2013-01-20_mk41mk22mix_1644_d1t14.flac:c63c7efdb5a3c420777702fa72607940
tab2013-01-20_mk41mk22mix_1644_d1t15.flac:fb7b8e1090bf40c8ba6531f808e145b5
tab2013-01-20_mk41mk22mix_1644_d2t01.flac:f7e737179b14181de3b7ae8c5e3860f5
tab2013-01-20_mk41mk22mix_1644_d2t02.flac:49f2efd43a03a31cfd36bab8532a61e4
tab2013-01-20_mk41mk22mix_1644_d2t03.flac:f361710a14649826f8f9038c9a42477f
tab2013-01-20_mk41mk22mix_1644_d2t04.flac:b4a3d5c83c8fe623b2d703581409956d
tab2013-01-20_mk41mk22mix_1644_d2t05.flac:d4bd571ca7367e6c3c20175f7c0f3c21
tab2013-01-20_mk41mk22mix_1644_d2t06.flac:79db2543454a847fd23a9540b7520d1f
tab2013-01-20_mk41mk22mix_1644_d2t07.flac:e1f78e4c2c229c369d2d32a97eeebbdc
tab2013-01-20_mk41mk22mix_1644_d2t08.flac:a79c4cf543df5433af9c94cf752a5550
tab2013-01-20_mk41mk22mix_1644_d2t09.flac:e7198925bbecaba1b4f5be5a8a5e8068
tab2013-01-20_mk41mk22mix_1644_d2t10.flac:e0e3b6ac39c56f6d00e9294428887c8b
tab2013-01-20_mk41mk22mix_1644_d2t11.flac:155a9df55072774bc28cea8ff1ceff46
tab2013-01-20_mk41mk22mix_1644_d2t12.flac:b2dc50b73e1ecc791e45e01b6b0bb4ae
tab2013-01-20_mk41mk22mix_1644_d2t13.flac:048ca3a893e579ea65b9499a0f18ec44
tab2013-01-20_mk41mk22mix_1644_d2t14.flac:6d2b849d2cc62c80c11c255161548b55
tab2013-01-20_mk41mk22mix_1644_d2t15.flac:648597596c04fd48b04fef0d90a9f9f9

length expanded size cdr WAVE problems fmt ratio filename
1:00.57 10718108 B --- -- ----- wav 1.0000 tab2013-01-20_mk41mk22mix_1644_d1t01.wav
7:08.63 75647420 B --- -- ----- wav 1.0000 tab2013-01-20_mk41mk22mix_1644_d1t02.wav
9:02.29 95677052 B --- -- ----- wav 1.0000 tab2013-01-20_mk41mk22mix_1644_d1t03.wav
5:42.57 60462908 B --- -- ----- wav 1.0000 tab2013-01-20_mk41mk22mix_1644_d1t04.wav
3:47.06 40056956 B --- -- ----- wav 1.0000 tab2013-01-20_mk41mk22mix_1644_d1t05.wav
6:03.09 64054412 B --- -- ----- wav 1.0000 tab2013-01-20_mk41mk22mix_1644_d1t06.wav
5:50.30 61810604 B --- -- ----- wav 1.0000 tab2013-01-20_mk41mk22mix_1644_d1t07.wav
5:42.28 60394700 B --- -- ----- wav 1.0000 tab2013-01-20_mk41mk22mix_1644_d1t08.wav
6:29.47 68730188 B --- -- ----- wav 1.0000 tab2013-01-20_mk41mk22mix_1644_d1t09.wav
6:32.49 69264092 B --- -- ----- wav 1.0000 tab2013-01-20_mk41mk22mix_1644_d1t10.wav
3:37.32 38354108 B --- -- ----- wav 1.0000 tab2013-01-20_mk41mk22mix_1644_d1t11.wav
8:30.64 90114572 B --- -- ----- wav 1.0000 tab2013-01-20_mk41mk22mix_1644_d1t12.wav
6:11.27 65507948 B --- -- ----- wav 1.0000 tab2013-01-20_mk41mk22mix_1644_d1t13.wav
4:04.43 43142780 B --- -- ----- wav 1.0000 tab2013-01-20_mk41mk22mix_1644_d1t14.wav
7:32.66 79888076 B --- -- ----- wav 1.0000 tab2013-01-20_mk41mk22mix_1644_d1t15.wav
0:56.49 9993692 B --- -- ----- wav 1.0000 tab2013-01-20_mk41mk22mix_1644_d2t01.wav
8:16.13 87525020 B --- -- ----- wav 1.0000 tab2013-01-20_mk41mk22mix_1644_d2t02.wav
7:39.73 81139340 B --- -- ----- wav 1.0000 tab2013-01-20_mk41mk22mix_1644_d2t03.wav
9:32.64 101051372 B --- -- ----- wav 1.0000 tab2013-01-20_mk41mk22mix_1644_d2t04.wav
5:38.73 59794940 B --- -- ----- wav 1.0000 tab2013-01-20_mk41mk22mix_1644_d2t05.wav
7:16.42 77009228 B --- -- ----- wav 1.0000 tab2013-01-20_mk41mk22mix_1644_d2t06.wav
7:49.23 82785740 B --- -- ----- wav 1.0000 tab2013-01-20_mk41mk22mix_1644_d2t07.wav
15:00.35 158842364 B --- -- ----- wav 1.0000 tab2013-01-20_mk41mk22mix_1644_d2t08.wav
4:31.54 47931452 B --- -- ----- wav 1.0000 tab2013-01-20_mk41mk22mix_1644_d2t09.wav
3:45.62 39835868 B --- -- ----- wav 1.0000 tab2013-01-20_mk41mk22mix_1644_d2t10.wav
8:09.35 86341964 B --- -- ----- wav 1.0000 tab2013-01-20_mk41mk22mix_1644_d2t11.wav
2:21.04 24881852 B --- -- ----- wav 1.0000 tab2013-01-20_mk41mk22mix_1644_d2t12.wav
3:45.52 39812348 B --- -- ----- wav 1.0000 tab2013-01-20_mk41mk22mix_1644_d2t13.wav
4:14.66 44960876 B --- -- ----- wav 1.0000 tab2013-01-20_mk41mk22mix_1644_d2t14.wav
7:59.09 84516812 B --- -- ----- wav 1.0000 tab2013-01-20_mk41mk22mix_1644_d2t15.wav
184:15.61 1950246792 B 1.0000 (30 files)
Checksums;flac fingerprints generated by xACT 2.21 on 2013-01-21 20:04:56 -0500

tab2013-01-20_mk41mk22mix_1644_d1t01.flac:bf7ab08c50709c70db176ca097123418
tab2013-01-20_mk41mk22mix_1644_d1t02.flac:452c9bfbba4102ce142f8c4140b51781
tab2013-01-20_mk41mk22mix_1644_d1t03.flac:c803fa5ce7f1379e96ff5a4a1df9f6d6
tab2013-01-20_mk41mk22mix_1644_d1t04.flac:89a69fc1dac3bbd0f3038fe1b71217dc
tab2013-01-20_mk41mk22mix_1644_d1t05.flac:bebc3c8797441d40b6388b8f677c34f2
tab2013-01-20_mk41mk22mix_1644_d1t06.flac:c5412fe71f3c59a9acd50d7de50b326e
tab2013-01-20_mk41mk22mix_1644_d1t07.flac:6c659308a8af8b4841c807478def6edf
tab2013-01-20_mk41mk22mix_1644_d1t08.flac:ea0a9cc46d12f5a91d54bc14e81a4b4f
tab2013-01-20_mk41mk22mix_1644_d1t09.flac:39dc2a4845e2eb76a7a097c72100bdb5
tab2013-01-20_mk41mk22mix_1644_d1t10.flac:e1f541b776ab2a319f646fa75676ccc4
tab2013-01-20_mk41mk22mix_1644_d1t11.flac:54bd6e01f3640ea17208e26089771a0c
tab2013-01-20_mk41mk22mix_1644_d1t12.flac:dfd5d250561c4f8878f75784d0db91ef
tab2013-01-20_mk41mk22mix_1644_d1t13.flac:bb02a73bcad7db4708d6a6ab5d6c0c6f
tab2013-01-20_mk41mk22mix_1644_d1t14.flac:c63c7efdb5a3c420777702fa72607940
tab2013-01-20_mk41mk22mix_1644_d1t15.flac:fb7b8e1090bf40c8ba6531f808e145b5
tab2013-01-20_mk41mk22mix_1644_d2t01.flac:f7e737179b14181de3b7ae8c5e3860f5
tab2013-01-20_mk41mk22mix_1644_d2t02.flac:49f2efd43a03a31cfd36bab8532a61e4
tab2013-01-20_mk41mk22mix_1644_d2t03.flac:f361710a14649826f8f9038c9a42477f
tab2013-01-20_mk41mk22mix_1644_d2t04.flac:b4a3d5c83c8fe623b2d703581409956d
tab2013-01-20_mk41mk22mix_1644_d2t05.flac:d4bd571ca7367e6c3c20175f7c0f3c21
tab2013-01-20_mk41mk22mix_1644_d2t06.flac:79db2543454a847fd23a9540b7520d1f
tab2013-01-20_mk41mk22mix_1644_d2t07.flac:e1f78e4c2c229c369d2d32a97eeebbdc
tab2013-01-20_mk41mk22mix_1644_d2t08.flac:a79c4cf543df5433af9c94cf752a5550
tab2013-01-20_mk41mk22mix_1644_d2t09.flac:e7198925bbecaba1b4f5be5a8a5e8068
tab2013-01-20_mk41mk22mix_1644_d2t10.flac:e0e3b6ac39c56f6d00e9294428887c8b
tab2013-01-20_mk41mk22mix_1644_d2t11.flac:155a9df55072774bc28cea8ff1ceff46
tab2013-01-20_mk41mk22mix_1644_d2t12.flac:b2dc50b73e1ecc791e45e01b6b0bb4ae
tab2013-01-20_mk41mk22mix_1644_d2t13.flac:048ca3a893e579ea65b9499a0f18ec44
tab2013-01-20_mk41mk22mix_1644_d2t14.flac:6d2b849d2cc62c80c11c255161548b55
tab2013-01-20_mk41mk22mix_1644_d2t15.flac:648597596c04fd48b04fef0d90a9f9f9
TypeTrey Anastasio
Last seederLast activity 16:11 ago
Size1.045 GB (1122199107 Bytes)
Added2013-01-21 20:46:04
Views0
Hits553
Snatched346 times
Upped byandyjah
Num files
[See full list]
32 files
Seeders
[Hide list]
1 Seeder(s)
ip:portclient
version
ul
bytes
dl
bytes
ratiocompleteul
rate
dl
rate
time
connected
time
left
idle
76.179.69.xxx:60100 μtorrent 3.1.3.0 0 B 0 B N/A 100.00%
N/A N/A 1 day, 13:47:27 N/A 16:11
0 of 1 firewalled (0%) 100.00%
N/AN/A
Leechers
[Hide list]
0 Leecher(s)

Add a comment

jasonsobel 2013-01-21 21:40:14
I just added this to the etree database:
http://db.etree.org/shn/123548

thanks Andy!
colinw 2013-01-21 22:23:37
sounds great, thanks Andy.

Good to meet you, and thanks again for the pointers!
Tranastasio1 2013-01-21 23:26:10
Thanx for the "KIND" seed!
Howl58 2013-01-22 00:38:42
Sounds great. Thank you for sharing.
SnowRide 2013-01-22 07:06:06
Stoked to check this out Andy!
Pisces 2013-01-22 09:00:33
Thanks!
anglomuse 2013-01-22 15:36:56
Thanks
thecat18 2013-01-22 20:53:43
Thanks for sharing.
BBuckle 2013-01-23 17:10:07
- Thank You !!
kayatosh 2013-01-24 14:41:01
thank you. sounds great.

Add a comment


http://etree.org : http://db.etree.org : http://forums.etree.org : http://wiki.etree.org : Legal : RSS Feed

Contents designed & maintained by the etree.org volunteers
1998-2014, etree.org, except where noted. All Rights Reserved.
Read our terms of service and privacy guidelines