bt.etree.org
etree.org Community Bittorrent Tracker
ArtistPhish
Showphish1999-07-12.B+K4011 *NEW SOURCE TO DB*
Report this as
non-Trade-Friendly
Email us
Torrentphish1999-07-12b+k4011.torrent (click to download)
Downloads asphish1999-07-12b+k4011
Info hash302cc6b589d693381eb1ad59f7c9e49048f31a94
db linkhttp://db.etree.org/shn/123561 | Show | Source
DescriptionPhish - July 12, 1999
Tweeter Center - Mansfield, MA

Recording Info:
B+K 4011 -> Lunatec V2 -> Dat (Tascam DA-P1/44.1k)

Transfer Info:
Dat (Tascam DA-20) -> Tascam SS-R05 -> Samplitude Professional v11.2.1 -> FLAC
(2 Discs Audio / 1 DVD FLAC)

All Transfers and Mastering By Charlie Miller
charliemiller87@earthlink.net
January 23, 2013

Notes:
-- Move encore to end of Set 1 to fit onto 2 discs

Set 1:
s1t01 - Foreplay ->
s1t02 - Long Time ->
s1t03 - Down With Disease
s1t04 - Back On The Train
s1t05 - What's The Use?
s1t06 - Split Open And Melt
s1t07 - Water In The Sky ->
s1t08 - Character Zero

Set 2:
s2t01 - Twist ->
s2t02 - The Moma Dance ->
s2t03 - Makisupa Policeman ->
s2t04 - David Bowie
s2t05 - The Lizards
s2t06 - Guyute

Encore:
s2t07 - Encore Break
s2t08 - Rock And Roll


SHNTOOL OUTPUT:
length expanded size cdr WAVE problems fmt ratio filename
3:15.08 34416860 B --- -- ---xx flac 0.5651 phish1999-07-12s1t01.flac
8:23.32 88804508 B --- -- ---xx flac 0.5818 phish1999-07-12s1t02.flac
18:11.07 192468908 B --- -- ---xx flac 0.5685 phish1999-07-12s1t03.flac
6:13.06 65811356 B --- -- ---xx flac 0.5234 phish1999-07-12s1t04.flac
8:51.25 93727244 B --- -- ---xx flac 0.5266 phish1999-07-12s1t05.flac
14:06.50 149352044 B --- -- ---xx flac 0.5538 phish1999-07-12s1t06.flac
5:41.36 60237116 B --- -- ---xx flac 0.5411 phish1999-07-12s1t07.flac
7:53.14 83470172 B --- -- ---xx flac 0.5777 phish1999-07-12s1t08.flac
12:18.30 130253804 B --- -- ---xx flac 0.5380 phish1999-07-12s2t01.flac
9:32.66 101056076 B --- -- ---xx flac 0.5661 phish1999-07-12s2t02.flac
9:34.44 101357132 B --- -- ---xx flac 0.5275 phish1999-07-12s2t03.flac
20:37.45 218312684 B --- -- ---xx flac 0.5465 phish1999-07-12s2t04.flac
10:52.22 115064588 B --- -- ---xx flac 0.5602 phish1999-07-12s2t05.flac
11:41.56 123788156 B --- -- ---xx flac 0.5611 phish1999-07-12s2t06.flac
2:44.16 28967276 B --- -- ---xx flac 0.5239 phish1999-07-12s2t07.flac
7:08.30 75569804 B --- -- ---xx flac 0.5963 phish1999-07-12s2t08.flac
157:05.37 1662657728 B 0.5546 (16 files)
Checksumsphish1999-07-12s1t01.flac:e19e2e206421119ba9bde6f3435d60c3<br />
phish1999-07-12s1t02.flac:f695aac6e4d77009388194dfa45de209<br />
phish1999-07-12s1t03.flac:4c5f2711dbd3580661a95e739e192b7b<br />
phish1999-07-12s1t04.flac:e1a66141756ff740be1247ef0a7d8fa7<br />
phish1999-07-12s1t05.flac:207a67bb536538281ea56deebf9b1cc9<br />
phish1999-07-12s1t06.flac:db3fab7f8e86ef6fb717848ac6597f55<br />
phish1999-07-12s1t07.flac:ff82fe7bcf803113454e0b6fcedea618<br />
phish1999-07-12s1t08.flac:3daf19144dea4e1b623079f266b86a0d<br />
phish1999-07-12s2t01.flac:5dc30e2e17ed967b836907f3d72b67df<br />
phish1999-07-12s2t02.flac:b676e6329c9e1cd8e903cf862a9a5f8b<br />
phish1999-07-12s2t03.flac:17020216940a15cfc0195586f2c3ad2a<br />
phish1999-07-12s2t04.flac:7f1867d20cd4fff26e52b3598f71e1c5<br />
phish1999-07-12s2t05.flac:c84b63aba6aab115097568164edddf6d<br />
phish1999-07-12s2t06.flac:dac7aa11e1cc97abfc4308832f779e3e<br />
phish1999-07-12s2t07.flac:c457494013abedbbaf6cf0da0678ac00<br />
phish1999-07-12s2t08.flac:b0af7c318acc2108e0ecf06b7fc55174<br />
TypePhish
Last seederLast activity 29:36 ago
Size879.37 MB (922082344 Bytes)
Added2013-01-23 04:30:02
Views4
Hits856
Snatched565 times
Upped bycharlie miller
Num files
[See full list]
19 files
Peers
[See full list]
1 seeder, 0 leechers = 1 peer total

Add a comment

jasonsobel 2013-01-23 05:20:46
I just added this to the etree database:
http://db.etree.org/shn/123561

thanks!
gainesvillegreen 2013-01-23 09:15:33
Thanks!
colinw 2013-01-23 09:48:48
thanks, I had a blast at these Great Woods shows, and listen to them regularly. Great to have a new source.
metawhy 2013-01-23 10:22:39
THANKS!!

Love this Foreplay >> Longtime, so much energy!
geewiz010 2013-01-23 13:38:47
Nice thanks for this!
cmval 2013-01-23 14:20:12
Wow, my first summer out on tour. Love these shows, nice to see new sources still showing up.
digs5446 2013-01-24 08:36:42
sick! thanks charlie
dpataper4022 2013-01-31 13:45:58
Who was the original taper?
padelimike 2013-02-04 03:23:35
dpataper4022
"Who was the original taper?"

I assumed this was yours.
Did you have any patchers?
kindmeow 2014-06-22 21:39:43
many thanks!

Add a comment


http://etree.org : http://db.etree.org : http://forums.etree.org : http://wiki.etree.org : Legal : RSS Feed

Contents designed & maintained by the etree.org volunteers
1998-2014, etree.org, except where noted. All Rights Reserved.
Read our terms of service and privacy guidelines