bt.etree.org
etree.org Community Bittorrent Tracker
ArtistLittle Feat
ShowLittle Feat 2013-01-07 Musikfest Cafe, Bethlehem, PA *Cafiero/Ford Schoeps/Sennheiser Matrix*
Report this as
non-Trade-Friendly
Email us
Torrentlf2013-01-07.mtx.cafiero.ford.123563.sbeok.flac16.torrent (click to download)
Downloads aslf2013-01-07.mtx.cafiero.ford.123563.sbeok.flac16
Info hash3c5e74918b7a2dfc501f41e9a75598f5b510fec9
db linkhttp://db.etree.org/shn/123563 | Show | Source
DescriptionLittle Feat
01/07/2013 - Monday
Musikfest Cafe At ArtsQuest Center
Bethlehem, PA


Source: Audience Matrix; Schoeps cmc6/mk4v + Sennheiser ME 64 > Tascam DR-680 (@24/44.1)

Lineage: Tascam DR-680 (SD)> WaveLab 7.2.1 (editing/mixing/mastering with UAD-2 in 24/44.1)>
.wav @ 24/44.1> Steinberg UV22HR> .wav @16/.44.1> xAct 2.20> flac16 (level eight)

Taped and transferred by Chris Cafiero.
Edited, mixed and mastered by Alex Ford.


CD 1 [71:30]

01. Intro
02. Spanish Moon >
03. Skin It Back
04. One Breath At A Time
05. Salome
06. Fat Man In The Bathtub >
07. Abba Zaba >
08. Bass/Boogie On Reggae Woman >
09. Fat Man In The Bathtub
10. Truck Stop Girl
11. Willin' >
12. Don't Bogart That Joint >
13. Six Feet Of Snow
14. Rooster Rag

CD 2: [32:44]

01. Dixie Chicken >
02. Bass Jam >
03. Key/Drum Jam >
04. Oh Atlanta >
05. Dixie Chicken
Encore:
06. Let It Roll


Comments:

- November 2nd show tickets were honored for the new performance date.

Notes:

- Meta tagging with xAct 2.20


length expanded size cdr WAVE problems fmt ratio filename
0:39.21 6929036 B --- -- ----- wav 1.0000 lf2013-01-07.mtx.cafiero.ford-d1t01.wav
7:56.46 84074636 B --- -- ----- wav 1.0000 lf2013-01-07.mtx.cafiero.ford-d1t02.wav
8:13.37 87052268 B --- -- ----- wav 1.0000 lf2013-01-07.mtx.cafiero.ford-d1t03.wav
6:30.42 68894828 B --- -- ----- wav 1.0000 lf2013-01-07.mtx.cafiero.ford-d1t04.wav
7:03.52 74739548 B --- -- ----- wav 1.0000 lf2013-01-07.mtx.cafiero.ford-d1t05.wav
8:23.35 88811564 B --- -- ----- wav 1.0000 lf2013-01-07.mtx.cafiero.ford-d1t06.wav
2:24.21 25451036 B --- -- ----- wav 1.0000 lf2013-01-07.mtx.cafiero.ford-d1t07.wav
1:22.70 14629484 B --- -- ----- wav 1.0000 lf2013-01-07.mtx.cafiero.ford-d1t08.wav
3:28.00 36691244 B --- -- ----- wav 1.0000 lf2013-01-07.mtx.cafiero.ford-d1t09.wav
3:32.50 37514444 B --- -- ----- wav 1.0000 lf2013-01-07.mtx.cafiero.ford-d1t10.wav
8:34.67 90827228 B --- -- ----- wav 1.0000 lf2013-01-07.mtx.cafiero.ford-d1t11.wav
2:01.55 21473804 B --- -- ----- wav 1.0000 lf2013-01-07.mtx.cafiero.ford-d1t12.wav
4:50.48 51268940 B --- -- ----- wav 1.0000 lf2013-01-07.mtx.cafiero.ford-d1t13.wav
6:28.21 68492636 B --- -- ----- wav 1.0000 lf2013-01-07.mtx.cafiero.ford-d1t14.wav
5:03.27 53512748 B --- -- ----- wav 1.0000 lf2013-01-07.mtx.cafiero.ford-d2t01.wav
1:26.52 15292748 B --- -- ----- wav 1.0000 lf2013-01-07.mtx.cafiero.ford-d2t02.wav
4:00.06 42350156 B --- -- ----- wav 1.0000 lf2013-01-07.mtx.cafiero.ford-d2t03.wav
2:03.55 21826604 B --- -- ----- wav 1.0000 lf2013-01-07.mtx.cafiero.ford-d2t04.wav
10:35.43 112115180 B --- -- ----- wav 1.0000 lf2013-01-07.mtx.cafiero.ford-d2t05.wav
9:35.14 101462972 B --- -- ----- wav 1.0000 lf2013-01-07.mtx.cafiero.ford-d2t06.wav
104:15.12 1103411104 B 1.0000 (20 files)
ChecksumsFFP:<br />
<br />
lf2013-01-07.mtx.cafiero.ford-d1t01.flac:86795b290f56831535ae6635581565c3<br />
lf2013-01-07.mtx.cafiero.ford-d1t02.flac:855ca1b59068d8234f2a656084fa1a53<br />
lf2013-01-07.mtx.cafiero.ford-d1t03.flac:b5cc0425e00513724520ca500055f14c<br />
lf2013-01-07.mtx.cafiero.ford-d1t04.flac:6d0ccad9e4732fa5ecc014e74915e8db<br />
lf2013-01-07.mtx.cafiero.ford-d1t05.flac:d76347757a73dc8cdb9d3315a75ace76<br />
lf2013-01-07.mtx.cafiero.ford-d1t06.flac:3e2629ccb8bf044de2a64ab9928302c6<br />
lf2013-01-07.mtx.cafiero.ford-d1t07.flac:ce1f94ca7d66d96dcfc9a37b83e35eff<br />
lf2013-01-07.mtx.cafiero.ford-d1t08.flac:9d9b4b0a7458db5c2bc12df060a4b3c0<br />
lf2013-01-07.mtx.cafiero.ford-d1t09.flac:857aeb7a9fb09bdb133c9c4361c641fa<br />
lf2013-01-07.mtx.cafiero.ford-d1t10.flac:ad0e13bfad3f15d0c0e3938618b6cc40<br />
lf2013-01-07.mtx.cafiero.ford-d1t11.flac:14a6b9a8db6511d03f5937a288f6ccd8<br />
lf2013-01-07.mtx.cafiero.ford-d1t12.flac:b49bd84a24ffe161fa54eb13262e1818<br />
lf2013-01-07.mtx.cafiero.ford-d1t13.flac:2baa4e0cf3613b5713b34ef57116a699<br />
lf2013-01-07.mtx.cafiero.ford-d1t14.flac:a3b701a31b9269416ca76db5780464eb<br />
lf2013-01-07.mtx.cafiero.ford-d2t01.flac:29edf4bf0e81ad22b05ceaf4a739c223<br />
lf2013-01-07.mtx.cafiero.ford-d2t02.flac:8c5ad638bdff3f4faa43c5cecf971fa0<br />
lf2013-01-07.mtx.cafiero.ford-d2t03.flac:fbef98c53613dd41f8d45a5f6abb86bc<br />
lf2013-01-07.mtx.cafiero.ford-d2t04.flac:f18b0273b934664b9e5ced97f2844576<br />
lf2013-01-07.mtx.cafiero.ford-d2t05.flac:7d2427776c1945b870a00c397af08eff<br />
lf2013-01-07.mtx.cafiero.ford-d2t06.flac:4d2e2c9f6261a10e195c55b82fbce636
TypeLittle Feat
Last seederLast activity 10:15 ago
Size582.04 MB (610318094 Bytes)
Added2013-01-23 17:33:01
Views3
Hits238
Snatched80 times
Upped byAlbix
Num files
[See full list]
24 files
Peers
[See full list]
0 seeders, 1 leecher = 1 peer total

Add a comment

Albix 2013-01-23 17:59:28
Some Bass for your Face. Enjoy!
bigdaddybflo 2013-01-23 19:01:28
Fresh feat for ya boys an girls ! Come an git some.
Albix 2013-01-23 22:25:50
Now on the LMA ~> https://archive.org/details/lf2013-01-07.mtx.cafiero.ford.123563.sbeok.flac16

Don't miss out, another great one from Chris, just stream it...

Add a comment


http://etree.org : http://db.etree.org : http://forums.etree.org : http://wiki.etree.org : Legal : RSS Feed

Contents designed & maintained by the etree.org volunteers
1998-2014, etree.org, except where noted. All Rights Reserved.
Read our terms of service and privacy guidelines