bt.etree.org
etree.org Community Bittorrent Tracker
ArtistTrey Anastasio
ShowTrey Anastasio Band 2013-01-20 State Theater Portland, ME Schoeps mk41/cmc6>Sonosax SX-R4**16bit**
Report this as
non-Trade-Friendly
Email us
Torrenttab2013-01-20_mk41_1644_FLAC.torrent (click to download)
Downloads astab2013-01-20_mk41_1644_FLAC
Info hash6b3011642c3ab64454098adb873bd3655b02a706
db linkhttp://db.etree.org/shn/123568 | Show | Source
DescriptionTrey Anastasio Band
2013-01-20
State Theater
Portland, ME

Mics were right of center next to the foh.DIN

Source: Schoeps MK41>KC5>CMC6>Sonosax SX-R4(24bit/96khz)

Lineage: WAV>USB>Macbook Pro>Wave Editor(tracking,fades,resample(izotope)/dither(mbit+)to 16 bit/44.1k)>XAct(FLAC 8,ffp,fix sbe)

Taped by: Andy Murray
Transferred by: Andy Murray

Set One:

01 Crowd
02 Cayman Review
03 Alive Again
04 Pigtail
05 Magilla
06 Scabbard
07 Frost
08 Corona
09 Burlap Sack And Pumps
10 Where Ever You Find It
11 Land Of Nod
12 Dark And Down
13 Valentine
14 band intros/banter
15 First Tube

Set Two:

01 Crowd
02 Curlew's Call
03 Drifting
04 Money Love And Change
05 Ooh Child
06 Goodbye Head
07 Architect
08 Sand
09 Clint Eastwood
10 The Devil Went Down To Georgia
11 Push On Till The Day
12 encore break

Encore:
13 At The Gazebo
14 Heavy Things
15 Sultans Of Swing

length expanded size cdr WAVE problems fmt ratio filename
1:15.15 13265324 B --- -- ----- wav 1.0000 tab2013-01-20_mk41_1644_d1t01.wav
6:54.17 73069628 B --- -- ----- wav 1.0000 tab2013-01-20_mk41_1644_d1t02.wav
9:02.28 95674700 B --- -- ----- wav 1.0000 tab2013-01-20_mk41_1644_d1t03.wav
5:44.02 60686348 B --- -- ----- wav 1.0000 tab2013-01-20_mk41_1644_d1t04.wav
3:46.08 39885260 B --- -- ----- wav 1.0000 tab2013-01-20_mk41_1644_d1t05.wav
6:03.72 64202588 B --- -- ----- wav 1.0000 tab2013-01-20_mk41_1644_d1t06.wav
5:45.70 61022684 B --- -- ----- wav 1.0000 tab2013-01-20_mk41_1644_d1t07.wav
5:49.58 61700060 B --- -- ----- wav 1.0000 tab2013-01-20_mk41_1644_d1t08.wav
6:22.60 67525964 B --- -- ----- wav 1.0000 tab2013-01-20_mk41_1644_d1t09.wav
6:36.48 69967340 B --- -- ----- wav 1.0000 tab2013-01-20_mk41_1644_d1t10.wav
3:37.31 38351756 B --- -- ----- wav 1.0000 tab2013-01-20_mk41_1644_d1t11.wav
8:28.71 89778236 B --- -- ----- wav 1.0000 tab2013-01-20_mk41_1644_d1t12.wav
6:13.73 65968940 B --- -- ----- wav 1.0000 tab2013-01-20_mk41_1644_d1t13.wav
4:02.61 42832316 B --- -- ----- wav 1.0000 tab2013-01-20_mk41_1644_d1t14.wav
7:32.64 79883372 B --- -- ----- wav 1.0000 tab2013-01-20_mk41_1644_d1t15.wav
1:01.31 10833356 B --- -- ----- wav 1.0000 tab2013-01-20_mk41_1644_d2t01.wav
8:11.22 86664188 B --- -- ----- wav 1.0000 tab2013-01-20_mk41_1644_d2t02.wav
7:39.24 81024092 B --- -- ----- wav 1.0000 tab2013-01-20_mk41_1644_d2t03.wav
9:31.64 100874972 B --- -- ----- wav 1.0000 tab2013-01-20_mk41_1644_d2t04.wav
5:42.60 60469964 B --- -- ----- wav 1.0000 tab2013-01-20_mk41_1644_d2t05.wav
7:14.37 76644668 B --- -- ----- wav 1.0000 tab2013-01-20_mk41_1644_d2t06.wav
7:49.04 82741052 B --- -- ----- wav 1.0000 tab2013-01-20_mk41_1644_d2t07.wav
15:00.62 158905868 B --- -- ----- wav 1.0000 tab2013-01-20_mk41_1644_d2t08.wav
4:31.40 47898524 B --- -- ----- wav 1.0000 tab2013-01-20_mk41_1644_d2t09.wav
3:45.61 39833516 B --- -- ----- wav 1.0000 tab2013-01-20_mk41_1644_d2t10.wav
8:08.07 86099708 B --- -- ----- wav 1.0000 tab2013-01-20_mk41_1644_d2t11.wav
2:39.58 28184060 B --- -- ----- wav 1.0000 tab2013-01-20_mk41_1644_d2t12.wav
3:26.52 36460748 B --- -- ----- wav 1.0000 tab2013-01-20_mk41_1644_d2t13.wav
4:16.71 45325436 B --- -- ----- wav 1.0000 tab2013-01-20_mk41_1644_d2t14.wav
7:58.61 84462716 B --- -- ----- wav 1.0000 tab2013-01-20_mk41_1644_d2t15.wav
184:15.57 1950237384 B 1.0000 (30 files)
Checksums;flac fingerprints generated by xACT 2.21 on 2013-01-23 20:13:23 -0500

tab2013-01-20_mk41_1644_d1t01.flac:cc358d2ba0ef9c59a1127a3cb47cea2d
tab2013-01-20_mk41_1644_d1t02.flac:d40a79430ee112e9c901091ff965cce4
tab2013-01-20_mk41_1644_d1t03.flac:39648941ca9baf20511db889acb0d9b6
tab2013-01-20_mk41_1644_d1t04.flac:1e2ff229995a04e9dd0d6fdcda789608
tab2013-01-20_mk41_1644_d1t05.flac:50452cfe580b14d8b446ca3c0bf70ea0
tab2013-01-20_mk41_1644_d1t06.flac:b6f177c0a91af26254f694889654c399
tab2013-01-20_mk41_1644_d1t07.flac:c6eaa25275f8f4082b3cface9a0a9d7d
tab2013-01-20_mk41_1644_d1t08.flac:82ab03f36e84cf3156d36f2afd2d9878
tab2013-01-20_mk41_1644_d1t09.flac:4dde50624127c6fd35c52732270f6af8
tab2013-01-20_mk41_1644_d1t10.flac:c48d483304f91bb5893b1c9d12d19d12
tab2013-01-20_mk41_1644_d1t11.flac:886dafcf997e464a04cd75a97f28448c
tab2013-01-20_mk41_1644_d1t12.flac:d6b5dc5111d12408f53023a7df62b856
tab2013-01-20_mk41_1644_d1t13.flac:df58905d15452fa92ebf717e35081383
tab2013-01-20_mk41_1644_d1t14.flac:f6dc92a9227d315fe12e6d3a47a57eea
tab2013-01-20_mk41_1644_d1t15.flac:7c3658471f675e0b2b1653ee04bdf52f
tab2013-01-20_mk41_1644_d2t01.flac:d6f8572f8c6f03aea35ac8529e9c92dc
tab2013-01-20_mk41_1644_d2t02.flac:cdde97c4c213ec54c065ad3704937ff2
tab2013-01-20_mk41_1644_d2t03.flac:2836c03117f5844411381d5838ec75f1
tab2013-01-20_mk41_1644_d2t04.flac:5e02bea603370de42794afe344abdf6a
tab2013-01-20_mk41_1644_d2t05.flac:a96c8f3504f603220f9dc85a10a339b5
tab2013-01-20_mk41_1644_d2t06.flac:bb105f448491ab726000b704fa4abaa2
tab2013-01-20_mk41_1644_d2t07.flac:c45341c6620445409f803a5f3bc454d9
tab2013-01-20_mk41_1644_d2t08.flac:a8f50a44ff6ba9edb64194e4c7e90c13
tab2013-01-20_mk41_1644_d2t09.flac:03f7c78cf68c416e417d6a468a316e9c
tab2013-01-20_mk41_1644_d2t10.flac:a28a9ef03dbe0d2ade3b8bed1c075d7e
tab2013-01-20_mk41_1644_d2t11.flac:27d216a91b9c89725d5d18163f4a97a9
tab2013-01-20_mk41_1644_d2t12.flac:f96589b578d06f7a0413ee49bc818d73
tab2013-01-20_mk41_1644_d2t13.flac:10c9041aa7b8d953fd14518b150433e2
tab2013-01-20_mk41_1644_d2t14.flac:5756f38a92e102f2743828a982dbc944
tab2013-01-20_mk41_1644_d2t15.flac:25afee82c1cfca09a31cd6a78fdeac5d
TypeTrey Anastasio
Last seederLast activity 54 days, 09:54:20 ago
Size1.071 GB (1150268457 Bytes)
Added2013-01-23 20:36:47
Views0
Hits312
Snatched123 times
Upped byandyjah
Num files
[See full list]
32 files
Seeders
[Hide list]
0 Seeder(s)
Leechers
[Hide list]
0 Leecher(s)

Add a comment

jasonsobel 2013-01-24 05:14:16
I just added this to the etree database:
http://db.etree.org/shn/123568

thanks Andy!
dizbuster 2013-01-24 23:37:40
thanks a lot!
BBuckle 2013-01-25 16:49:58
- Thank You !!

Add a comment


http://etree.org : http://db.etree.org : http://forums.etree.org : http://wiki.etree.org : Legal : RSS Feed

Contents designed & maintained by the etree.org volunteers
1998-2014, etree.org, except where noted. All Rights Reserved.
Read our terms of service and privacy guidelines