bt.etree.org
etree.org Community Bittorrent Tracker
ArtistOther
ShowBhojanic Jam Featuring Yonrico Scott, Ted Pecchio, And Nick Johnson Bhojanic Restaurant Decatur, Georgia 1/23/2013 (Schoeps CCM4V'S FOB)
Report this as
non-Trade-Friendly
Email us
Torrentbhojanic2013-01-23.flac16.torrent (click to download)
Downloads asbhojanic2013-01-23.flac16
Info hashba2297292406cf383e43f46648e130d4c38dde62
DescriptionBhojanic Jam Featuring Yonrico Scott, Ted Pecchio, And Nick Johnson Trio
Bhojanic Restaurant
Decatur, Georgia
1/23/2013

Source: Schoeps CCM4V'S(din)>Lunatec V2>Benchmark AD2K>
Sound Devices 722 (24/48)
FOB/DFC/KFC/ZFC/AARP Stage Lip, 3' High
DSP: Sound Devices 722>Sound Forge 9.0>CD Wave>flac(16)
Recorded By: Z-Man
Seeded By: Z-Man

Disc I 1st Set

01 Band Introductions By Yonrico/Banter
02 Funky
03 ?
04 Can't Find My Way Home
05 Come Together

Disc II 2nd Set

01 *#? >
02 Drum Solo >
03 *#?
04 *#Stormy Monday >
05 *#The Blues Is Alright >
06 *#Stormy Monday
07 *? >
08 *Space Rocket #9 >
09 Space Is The Place
10 ? >
11 Drum solo >
12 ?
13 Band Introductions
14 ? >
15 Drum Solo/Chant >
16 ?

* With ? On Saxophone
# With Evan On Bass

Flac Fingerprint

bhojanic2013-01-23d01t01.flac:835bb2a01db32d2e96dd8fb82f7daa88
bhojanic2013-01-23d01t02.flac:2186269939db3d22d66bbc4645bafcfb
bhojanic2013-01-23d01t03.flac:5e6bea517e607b04ec5f6963a6a407f8
bhojanic2013-01-23d01t04.flac:f03e03cff85ec11e690ecf1cf833c861
bhojanic2013-01-23d01t05.flac:ae08fc9a3d968558d54912c452299358
bhojanic2013-01-23d02t01.flac:02d80a92183450d7ab46f03678dde892
bhojanic2013-01-23d02t02.flac:0d0bc77fc9565e9a841e740a12d43484
bhojanic2013-01-23d02t03.flac:77c345c4542a3c7f11997188989a4b1e
bhojanic2013-01-23d02t04.flac:452a87cdf530943b8288b4749fa74171
bhojanic2013-01-23d02t05.flac:25aeae0823a5608ed37b7d0592146a4c
bhojanic2013-01-23d02t06.flac:69404e230f42555e03e812f33452ef1a
bhojanic2013-01-23d02t07.flac:834b495737086c8f01618a6350c7f0c6
bhojanic2013-01-23d02t08.flac:bc971e94c29e20210f643ca430797403
bhojanic2013-01-23d02t09.flac:3667a5ca25daec3b4ca2850fc18e5777
bhojanic2013-01-23d02t10.flac:56b466f08a3e29e3be330a01eb131f43
bhojanic2013-01-23d02t11.flac:57f26b7384141558c3695e7a0d479e13
bhojanic2013-01-23d02t12.flac:a61ba28234b0db68eaf2339b5cccb926
bhojanic2013-01-23d02t13.flac:1af775223d7de515a9ace385537ed80e
bhojanic2013-01-23d02t14.flac:444d2a155cd688a6b8c102db7d0a6258
bhojanic2013-01-23d02t15.flac:f8929d2cafe596f0596b08ea1422108e
bhojanic2013-01-23d02t16.flac:8fea7e924c15dcb97184b77b9456e75a

Shntool

length expanded size cdr WAVE problems fmt ratio filename
3:32.03 37403900 B --- -- ---xx flac 0.3117 bhojanic2013-01-23d01t01.flac
10:21.47 109654988 B --- -- ---xx flac 0.4592 bhojanic2013-01-23d01t02.flac
10:10.29 107672252 B --- -- ---xx flac 0.4608 bhojanic2013-01-23d01t03.flac
6:51.01 72502796 B --- -- ---xx flac 0.3531 bhojanic2013-01-23d01t04.flac
5:43.56 60636956 B --- -- ---xx flac 0.4716 bhojanic2013-01-23d01t05.flac
7:42.42 81595628 B --- -- ---xx flac 0.4809 bhojanic2013-01-23d02t01.flac
2:41.66 28555676 B --- -- ---xx flac 0.3603 bhojanic2013-01-23d02t02.flac
2:52.45 30446684 B --- -- ---xx flac 0.3548 bhojanic2013-01-23d02t03.flac
4:48.12 50831468 B --- -- ---xx flac 0.4741 bhojanic2013-01-23d02t04.flac
2:23.62 25371068 B --- -- ---xx flac 0.2634 bhojanic2013-01-23d02t05.flac
2:04.38 21963020 B --- -- ---xx flac 0.3252 bhojanic2013-01-23d02t06.flac
1:36.01 16936796 B --- -- ---xx flac 0.5090 bhojanic2013-01-23d02t07.flac
4:17.28 45400700 B --- -- ---xx flac 0.5109 bhojanic2013-01-23d02t08.flac
5:46.61 61177916 B --- -- ---xx flac 0.5060 bhojanic2013-01-23d02t09.flac
5:14.63 55537820 B --- -- ---xx flac 0.5797 bhojanic2013-01-23d02t10.flac
0:43.13 7615820 B --- -- ---xx flac 0.5343 bhojanic2013-01-23d02t11.flac
1:06.39 11734172 B --- -- ---xx flac 0.5194 bhojanic2013-01-23d02t12.flac
1:58.37 20902268 B --- -- ---xx flac 0.2151 bhojanic2013-01-23d02t13.flac
5:00.73 53091740 B --- -- ---xx flac 0.4468 bhojanic2013-01-23d02t14.flac
2:04.15 21908924 B --- -- ---xx flac 0.4484 bhojanic2013-01-23d02t15.flac
2:15.32 23889308 B --- -- ---xx flac 0.4032 bhojanic2013-01-23d02t16.flac
89:16.13 944829900 B 0.4412 (21 files)











Checksumsbhojanic2013-01-23d01t01.flac:835bb2a01db32d2e96dd8fb82f7daa88<br />
bhojanic2013-01-23d01t02.flac:2186269939db3d22d66bbc4645bafcfb<br />
bhojanic2013-01-23d01t03.flac:5e6bea517e607b04ec5f6963a6a407f8<br />
bhojanic2013-01-23d01t04.flac:f03e03cff85ec11e690ecf1cf833c861<br />
bhojanic2013-01-23d01t05.flac:ae08fc9a3d968558d54912c452299358<br />
bhojanic2013-01-23d02t01.flac:02d80a92183450d7ab46f03678dde892<br />
bhojanic2013-01-23d02t02.flac:0d0bc77fc9565e9a841e740a12d43484<br />
bhojanic2013-01-23d02t03.flac:77c345c4542a3c7f11997188989a4b1e<br />
bhojanic2013-01-23d02t04.flac:452a87cdf530943b8288b4749fa74171<br />
bhojanic2013-01-23d02t05.flac:25aeae0823a5608ed37b7d0592146a4c<br />
bhojanic2013-01-23d02t06.flac:69404e230f42555e03e812f33452ef1a<br />
bhojanic2013-01-23d02t07.flac:834b495737086c8f01618a6350c7f0c6<br />
bhojanic2013-01-23d02t08.flac:bc971e94c29e20210f643ca430797403<br />
bhojanic2013-01-23d02t09.flac:3667a5ca25daec3b4ca2850fc18e5777<br />
bhojanic2013-01-23d02t10.flac:56b466f08a3e29e3be330a01eb131f43<br />
bhojanic2013-01-23d02t11.flac:57f26b7384141558c3695e7a0d479e13<br />
bhojanic2013-01-23d02t12.flac:a61ba28234b0db68eaf2339b5cccb926<br />
bhojanic2013-01-23d02t13.flac:1af775223d7de515a9ace385537ed80e<br />
bhojanic2013-01-23d02t14.flac:444d2a155cd688a6b8c102db7d0a6258<br />
bhojanic2013-01-23d02t15.flac:f8929d2cafe596f0596b08ea1422108e<br />
bhojanic2013-01-23d02t16.flac:8fea7e924c15dcb97184b77b9456e75a
TypeOther
Last seederLast activity 120 days, 14:53:33 ago
Size397.58 MB (416891167 Bytes)
Added2013-01-24 07:46:55
Views0
Hits211
Snatched43 times
Upped byzmanatl
Num files
[See full list]
22 files
Seeders
[Hide list]
0 Seeder(s)
Leechers
[Hide list]
0 Leecher(s)

Add a comment

Tom_of_Mule 2013-01-24 08:29:42
Thanks Z !
Tom
bigdaddybflo 2013-01-24 08:55:59
Rock star Z-manimal !!
MLPeep 2013-01-24 10:02:40
Thanks Z'!

But really, walking distance and you didn't call me? I've GOT to pay better attention!
zmanatl 2013-01-24 12:27:47
If you are 5 minutes away and live that close, YOU should be calling ME! It's every Wednesday dude, be there!
sgwannab 2013-01-26 11:36:50
Just a great night of music. It was a treat to be in that room. World Class craftsmanship delivered by guys having a good time.

Add a comment


http://etree.org : http://db.etree.org : http://forums.etree.org : http://wiki.etree.org : Legal : RSS Feed

Contents designed & maintained by the etree.org volunteers
1998-2014, etree.org, except where noted. All Rights Reserved.
Read our terms of service and privacy guidelines