bt.etree.org
etree.org Community Bittorrent Tracker
ArtistGarcia
Showjg1975-12-20.jgb.sbd.matera.123565.sbeok.flac16.torrent
Report this as
non-Trade-Friendly
Email us
Torrentjg1975-12-20.jgb.sbd.matera.123565.sbeok.flac16.torrent (click to download)
Downloads asjg1975-12-20.jgb.sbd.matera.123565.sbeok.flac16
Info hash969eac4393800762a11e2912d5432516244c3c1d
db linkhttp://db.etree.org/shn/123565 | Show | Source
DescriptionJerry Garcia Band
1975-12-20 (Saturday)
Winterland Arena
San Francisco, CA

++++++++++++++++++++++++++++++++++++++++++++++++++

This file: jg75-12-20.jgb.sbd.matera.123565.sbeok.flac16.txt
01-23-2013 Cool Edit EQ by Phil Matera

Amplitudes balanced, and overall sound improved.
For the two solo Nicky tunes, I centered the sound
and added some ambience.

This version based on Garcia1975-12-20.89589
89589 flac > wav > cool edit > wav > flac

++++++++++++++++++++++++++++++++++++++++++++++++++


d1t01 - Let It Rock
d1t02 - They Love Each Other
d1t03 - Russian Lullaby
d1t04 - Tore Up Over You
d1t05 - Jingle Bells
d2t06 - Birmingham
d2t01 - Night They Drove Old Dixie Down
d2t02 - Money Honey
d2t03 - Let's Spend The Night Together >
d2t04 - Let's Spend The Night Jam >
d2t05 - Edward, the Mad Shirt Grinder


+++++++++++++++++++++++++++++++++++++++++++++++++++++++++++++++

All info from here to end is from Garcia1975-12-20.89589.txt
except for shnlens

+++++++++++++++++++++++++++++++++++++++++++++++++++++++++++++++


Jerry Garcia Band
* Jerry Garcia - guitar, vocals
* John Kahn - bass
* Nicky Hopkins - keyboards, vocals
* Ron Tutt - drums
* Guest artist Matt Kelly on harmonica

Original SBD (shnid = 15849)
Source:
- Baked reels "last run" transfer 44.k (about 1993)
- DAT x 2

Conversion:
- M-1 > 7-pin > Co2 > SB Live
- CDWav
- FLAC

Patch Source:
AUD (shnid = 89571)
Analog Audience Source: FOB Master Cassettes (MAC)
Medium Stock Brands: MAC = Maxell UDXL C90
Analog Lineage: 2 x Sony ECM-270 => Sony TC-152 >> MAC
Analog Sound Preservation: MAC >> Nakamichi DR-8 => Korg MR-1000 >> DSF [1-bit 5.6448 MHz Stereo] >> Korg MR-1000 => Korg AudioGate >> WAV [24/96]
Taped By: Bob Menke and Louis Falanga
Transfer By: B. Menke
Mastering By: J. Wadell
MOTB release: 60

Mastering Notes
-- Edited, mastered and downsampled to 16/44.1 on the GEMS Edit Station.

Notes
-- Recording location was front row of the balcony, behind the stage. The microphones were pointed at speaker stacks about 25 to 30 feet away.
-- d1t05 - Nicky Hopkins performs "Jingle Bells" solo.
-- d1t06 - Nicky Hopkins performs "Birmingham" solo.
-- d2t04 - Small amount of music missing, due to tape flip, during first notes of the lead-in to "Let's Spend The Night Together"
---------------------------------------------------------
Tech Notes

SHNs were decoded to wave and Audition 3.0 was used to reassemble the tracks back to 1 long wave. Audition 3.0 was used to align & synch the SBD & AUD sources. Audition 3.0 used to adjust the volume for AUDs, matrix/CTR and LFE channels. Surcode CD Pro DTS was used to encode to DTS.
- Mixed by kevtobin@yahoo.com
- FLAC conversion 21-JAN-2008
--------------------------------------------------------
Audio Patching

1) Between Tore Up and Jingle Bells, 56.468 seconds were missing from the soundboard source and was filled in with audio from the AUD source.

2) At the end of Let's Spend the Night Together, 19.701 seconds were missing from the soundboard source and was filled in with audio from the AUD source.

3) At the end of Edward (the Mad Shirt Grinder), 50.947 seconds were missing from the soundboard source and was filled in with audio from the AUD source.

4) Bob Menke's audience was used as the timing reference - the "baked" sbd was very slow with an average of 5 seconds per minute difference.

Brokedown House Production

++++++++++++++++++++++++++++++++++++++++++++++++++++++++++++++++++++++++++++++++++++++++++++

shnlens are for
jg1975-12-20.123565.txt

length expanded size cdr WAVE problems fmt ratio filename
13:00.18 137634380 B --- -- ---xx flac 0.4857 jg1975-12-20d1t01.flac
8:13.05 86977004 B --- -- ---xx flac 0.4380 jg1975-12-20d1t02.flac
9:54.25 104840444 B --- -- ---xx flac 0.4467 jg1975-12-20d1t03.flac
12:02.02 127365548 B --- -- ---xx flac 0.5470 jg1975-12-20d1t04.flac
3:52.14 40957772 B --- -- ---xx flac 0.3014 jg1975-12-20d1t05.flac
5:54.38 62535020 B --- -- ---xx flac 0.3080 jg1975-12-20d1t06.flac
9:38.04 101968652 B --- -- ---xx flac 0.4253 jg1975-12-20d2t01.flac
13:56.49 147585692 B --- -- ---xx flac 0.4315 jg1975-12-20d2t02.flac
4:57.42 52489628 B --- -- ---xx flac 0.4809 jg1975-12-20d2t03.flac
7:34.63 80233820 B --- -- ---xx flac 0.4743 jg1975-12-20d2t04.flac
8:51.43 93769580 B --- -- ---xx flac 0.5547 jg1975-12-20d2t05.flac
97:55.03 1036357540 B 0.4587 (11 files)

++++++++++++++++++++++++++++++++++++++++++++++++++++++++++++++++++++++++++++++++++++++++++++

Checksumsjg1975-12-20d1t01.flac:d62c64712178d59eadc15cc46430e5cb<br />
jg1975-12-20d1t02.flac:a257fa154d371c4a6724877553bd17cd<br />
jg1975-12-20d1t03.flac:95cb2b1d3f30614fdbc7c2a9dbde4e66<br />
jg1975-12-20d1t04.flac:3f46203e909ce81cdbc1523b6338175f<br />
jg1975-12-20d1t05.flac:25101093ae82b26af1d0eea84c475efd<br />
jg1975-12-20d2t01.flac:9078e56c52ab362a6671b2ee29a18dc3<br />
jg1975-12-20d2t02.flac:7fe71a1b383ca969976a4b7e3ab08214<br />
jg1975-12-20d2t03.flac:f38e00d950ef84608abe536a598cf47d<br />
jg1975-12-20d2t04.flac:a59af6a9fe8f60739e362e448a678f4b<br />
jg1975-12-20d1t06.flac:52d28ea46c525d428c347b7bf8b681b6<br />
jg1975-12-20d2t05.flac:6fb74e8711a293b24ab2a299b48fb0c6<br />
TypeGarcia
Last seederLast activity 8:16 ago
Size453.39 MB (475417393 Bytes)
Added2013-01-24 22:20:54
Views0
Hits1357
Snatched802 times
Upped byphilmatera
Num files
[See full list]
14 files
Seeders
[Hide list]
3 Seeder(s)
ip:portclient
version
ul
bytes
dl
bytes
ratiocompleteul
rate
dl
rate
time
connected
time
left
idle
74.192.11.xxx:51413 0 B 0 B N/A 100.00%
N/A N/A 1:43:18 N/A 13:17
173.220.38.xxx:54909 μtorrent 2.2.1.0 0 B 0 B N/A 100.00%
N/A N/A 2 days, 12:39:58 N/A 38:18
31.53.215.xxx:25319 Azureus 5.4.0.0 0 B 0 B N/A 100.00%
N/A N/A 1 day, 08:59:05 N/A 37:47
0 of 3 firewalled (0%) 100.00%
N/AN/A
Leechers
[Hide list]
0 Leecher(s)

Add a comment

sprobeck 2013-01-25 14:32:55
Thank you!
hochmology 2013-01-25 14:47:54
Wow! Great work on this show. AMAZING
acesbacktoback 2013-01-26 11:51:51
thanks Phil M.

:-)~
philmatera 2013-01-28 03:15:14
Thank you guys for the "thank yous" and the nice feedback from hochmology. I think that the shows I offer are worthwhile, but it's great to hear it from someone else. It gives me the encouragement to work on more of them (and faster :-)

I have some shows I recorded "live" that I don't think are available in decent form in cyperspace.

More on that when the time comes.
poorlilwhiteboy 2013-05-02 09:03:28
Thanks Phil for the upgrade. I'm really curious what this new one sounds like. I'm Hoping you might consider redoing the Scarlet > Scarlet Jam from the same night.
grifftrain2000 2013-05-12 09:16:25
one of my favorite shows. thanks for putting this up here
kayatosh 2013-06-03 11:55:12
thank you!

Add a comment


http://etree.org : http://db.etree.org : http://forums.etree.org : http://wiki.etree.org : Legal : RSS Feed

Contents designed & maintained by the etree.org volunteers
1998-2014, etree.org, except where noted. All Rights Reserved.
Read our terms of service and privacy guidelines