bt.etree.org
etree.org Community Bittorrent Tracker
ArtistGrateful Dead
Showgd72-11-19.sbd.miller.123578.flac16 - New Declicked Version
Report this as
non-Trade-Friendly
Email us
Torrentgd72-11-19.sbd.miller.123578.flac16.torrent (click to download)
Downloads asgd72-11-19.sbd.miller.123578.flac16
Info hash72bcbf3eb2dcde0a027f71898e1c327dcad88661
db linkhttp://db.etree.org/shn/123578 | Show | Source
DescriptionGrateful Dead - November 19, 1972
Hofheinz Pavilion - Houston, TX

Recording Info:
SBD -> Master Reel -> Reel (7.5ips 2 track/Dolby B)

Transfer Info:
Reel (Dolby B Decoded) -> WAV (24bit/96k)

Mastering Info:
WAV (24bit/96k) -> Adobe Audition v3.0 -> Samplitude Professional v11.2.1 -> FLAC/16
(3 Discs Audio / 1 DVD FLAC)

Reels supplied and Transferred By David Gans
Mastered By Charlie Miller
charliemiller87@earthlink.net
January 24, 2013

Notes:
-- This is a cleaned up version of shnid=122783
-- I removed the pops and clicks (I hope I got them all)
-- All disc changes are seamless
-- Mix problems in Bertha
-- Cut at 0:27 in I Know You Rider
-- Cut at 0:13 in Playing In The Band
-- Cut at 2:46 in Weather Report Suite Prelude
-- This is far from perfect but is still an upgrade to other sources
-- Thanks to Joe B. Jones for his help with the pitch correction

Set 1:
d1t01 - Bertha
d1t02 - Me And My Uncle
d1t03 - Sugaree
d1t04 - Beat It On Down The Line
d1t05 - Bird Song
d1t06 - Black Throated Wind
d1t07 - Don't Ease Me In
d1t08 - Mexicali Blues
d1t09 - Box Of Rain
d1t10 - Stars And Stripes Forever tuning
d1t11 - Tomorrow Is Forever
d1t12 - Big River
d1t13 - China Cat Sunflower ->
d1t14 - I Know You Rider
d1t15 - Nickeldeon tuning
d2t01 - Playing In The Band
d2t02 - Casey Jones

Set 2:
d2t03 - Tuning
d2t04 - Promised Land
d2t05 - Ramble On Rose
d2t06 - El Paso
d2t07 - Stella Blue
d2t08 - Jack Straw
d2t09 - Dixie tuning
d3t01 - Dark Star ->
d3t02 - Weather Report Suite Prelude ->
d3t03 - Mississippi Half-Step Uptown Toodeloo
d3t04 - Around And Around
d3t05 - Big Railroad Blues
d3t06 - Sugar Magnolia ->
d3t07 - Goin' Down The Road Feeling Bad


SHNTOOL OUTPUT:
length expanded size cdr WAVE problems fmt ratio filename
5:18.66 56250476 B --- -- ---xx flac 0.5342 gd72-11-19d1t01.flac
3:04.38 32547020 B --- -- ---xx flac 0.5520 gd72-11-19d1t02.flac
7:02.00 74440844 B --- -- ---xx flac 0.4966 gd72-11-19d1t03.flac
3:19.67 35261228 B --- -- ---xx flac 0.4974 gd72-11-19d1t04.flac
11:25.47 120944588 B --- -- ---xx flac 0.4915 gd72-11-19d1t05.flac
6:43.27 71152748 B --- -- ---xx flac 0.4923 gd72-11-19d1t06.flac
3:37.48 38391740 B --- -- ---xx flac 0.4907 gd72-11-19d1t07.flac
4:25.67 46903628 B --- -- ---xx flac 0.4941 gd72-11-19d1t08.flac
5:33.52 58863548 B --- -- ---xx flac 0.4837 gd72-11-19d1t09.flac
0:56.72 10047788 B --- -- ---xx flac 0.4604 gd72-11-19d1t10.flac
5:31.51 58508396 B --- -- ---xx flac 0.4740 gd72-11-19d1t11.flac
4:37.66 49018076 B --- -- ---xx flac 0.4996 gd72-11-19d1t12.flac
7:06.40 75240524 B --- -- ---xx flac 0.5025 gd72-11-19d1t13.flac
5:04.27 53689148 B --- -- ---xx flac 0.5067 gd72-11-19d1t14.flac
0:31.04 5477852 B --- -- ---xx flac 0.4090 gd72-11-19d1t15.flac
21:15.70 225074684 B --- -- ---xx flac 0.4812 gd72-11-19d2t01.flac
5:59.60 63468764 B --- -- ---xx flac 0.4999 gd72-11-19d2t02.flac
2:16.53 24115100 B --- -- ---xx flac 0.4006 gd72-11-19d2t03.flac
3:17.27 34814348 B --- -- ---xx flac 0.5106 gd72-11-19d2t04.flac
6:53.52 72975548 B --- -- ---xx flac 0.4733 gd72-11-19d2t05.flac
4:24.38 46659020 B --- -- ---xx flac 0.4797 gd72-11-19d2t06.flac
8:15.20 87365084 B --- -- ---xx flac 0.4402 gd72-11-19d2t07.flac
6:05.23 64440140 B --- -- ---xx flac 0.4732 gd72-11-19d2t08.flac
1:07.74 11992892 B --- -- ---xx flac 0.4447 gd72-11-19d2t09.flac
25:40.17 271696028 B --- -- ---xx flac 0.4629 gd72-11-19d3t01.flac
6:00.54 63631052 B --- -- ---xx flac 0.5097 gd72-11-19d3t02.flac
8:32.18 90359180 B --- -- ---xx flac 0.5059 gd72-11-19d3t03.flac
5:03.22 53500988 B --- -- ---xx flac 0.5185 gd72-11-19d3t04.flac
4:54.35 51943964 B --- -- ---xx flac 0.4987 gd72-11-19d3t05.flac
8:35.33 90923660 B --- -- ---xx flac 0.5257 gd72-11-19d3t06.flac
7:55.23 83844140 B --- -- ---xx flac 0.4833 gd72-11-19d3t07.flac
200:38.16 2123542196 B 0.4879 (31 files)
Checksumsa4bb1b3b03cd4fac1b960f57d2d1f2f3 *gd72-11-19d1t01.flac
1ec8155d7c9d502040b1ff6028607b2b *gd72-11-19d1t02.flac
9e9eb77a3e919b8c7a0d7d3cb98c8ccf *gd72-11-19d1t03.flac
3dcebd903318176f79770d1e062c1b07 *gd72-11-19d1t04.flac
0ef812e846386f40e63a4c054bae2c8e *gd72-11-19d1t05.flac
4d56c130ca5461349282f8248fee8d37 *gd72-11-19d1t06.flac
121dfd3ba793c9f54566105f79aa7979 *gd72-11-19d1t07.flac
9b4a62a92e7d018b607e998969e9ef5d *gd72-11-19d1t08.flac
e36b57589f25d38bd6c27bcedcaf91ed *gd72-11-19d1t09.flac
ba3c3c09772b91f469e59dc626046519 *gd72-11-19d1t10.flac
404e9e865d652625ff952583da35a9af *gd72-11-19d1t11.flac
a13c2705877a023a7ca583d8ad69aecd *gd72-11-19d1t12.flac
3c6a98f0f9cbd1ed3509c09cc094f053 *gd72-11-19d1t13.flac
56ba4b60d54be3787800c5295364688b *gd72-11-19d1t14.flac
a6045aeeb6ae76b683d8ed1caf240837 *gd72-11-19d1t15.flac
f00888f3f60a29a73cfa4ecaa23c6a0e *gd72-11-19d2t01.flac
484af8b2a88d045f920eed27717ab9b1 *gd72-11-19d2t02.flac
e54c62a276a135ffa7421d8ccb114e55 *gd72-11-19d2t03.flac
0323297728a7775cb6b7b0b84b95df35 *gd72-11-19d2t04.flac
28187dda79cb406f7341d504dc0e00b4 *gd72-11-19d2t05.flac
0950e1dbbc52a8560894326af670c660 *gd72-11-19d2t06.flac
2a9fe56e355d23594509f08cf3646f38 *gd72-11-19d2t07.flac
c901f54b0fccc29d5472ead058c0c88a *gd72-11-19d2t08.flac
ec51b5b78402dc48f6e6d3cac4af8795 *gd72-11-19d2t09.flac
d97874e0fb1253e82750eef1d3cdc397 *gd72-11-19d3t01.flac
53c29c39bbde96131043e5aa0fc8736a *gd72-11-19d3t02.flac
519cf0066f1a3e5487dbb9d8636c281d *gd72-11-19d3t03.flac
9966bea8123f5e5ada823dcfff1602b9 *gd72-11-19d3t04.flac
1eaf7e0381489e9246f65450a7787d7f *gd72-11-19d3t05.flac
2fad55881c8ca281a6ff4a400a11d9c3 *gd72-11-19d3t06.flac
1900c298b5afd7b12e02a06603b8bfe0 *gd72-11-19d3t07.flac
TypeGrateful Dead
Last seederLast activity 25:41 ago
Size988.15 MB (1036148152 Bytes)
Added2013-01-25 10:38:56
Views0
Hits1440
Snatched1001 times
Upped byWHARFRAT73
Num files
[See full list]
34 files
Seeders
[Hide list]
11 Seeder(s)
ip:portclient
version
ul
bytes
dl
bytes
ratiocompleteul
rate
dl
rate
time
connected
time
left
idle
75.132.141.xxx:6881 ABC 3.1.0 1.692 GB 0 B 100.00%
0 B/s N/A 9:12:08 N/A 12:02
98.232.61.xxx:40678 365.62 MB 988.15 MB 0.370 100.00%
0 B/s 0 B/s 1 day, 15:55:25 N/A 6:23
69.251.246.xxx:23085 230.39 MB 0 B 100.00%
0 B/s N/A 18:27:02 N/A 21:51
50.0.66.xxx:58323 10.66 MB 0 B 100.00%
0 B/s N/A 2 days, 05:20:06 N/A 15:04
24.154.241.xxx:44822 Mainline 7.4.2 0 B 0 B N/A 100.00%
N/A N/A 1 day, 09:52:12 N/A 14:06
162.197.121.xxx:6881 0 B 0 B N/A 100.00%
N/A N/A 3:56:29 N/A 26:23
68.119.231.xxx:45737 μtorrent 3.4.2.0 0 B 0 B N/A 100.00%
N/A N/A 21:56:24 N/A 25:41
99.175.254.xxx:35292 μtorrent 2.2.1.0 0 B 0 B N/A 100.00%
N/A N/A 12:48:07 N/A 4:53
107.146.152.xxx:23899 μtorrent 3.2.3.0 0 B 0 B N/A 100.00%
N/A N/A 11:57:23 N/A 26:38
32.212.109.xxx:14783 μtorrent 3.4.2.0 0 B 0 B N/A 100.00%
N/A N/A 16:36 N/A 16:36
98.83.193.xxx:11569 μtorrent 3.4.2.0 0 B 0 B N/A 100.00%
N/A N/A 1 day, 04:31:15 N/A 24:34
0 of 11 firewalled (0%) 100.00%
N/AN/A
Leechers
[Hide list]
0 Leecher(s)

Add a comment

seremetcc 2013-01-25 10:57:20
Thanks, Charlie and Wharfrat. Will there be a 24 bit version as well??
WHARFRAT73 2013-01-25 12:03:38
I'm putting it up now.
jerome70 2013-01-25 14:00:29
thanx 4 this upgrade.
joeyjoejoe25 2013-01-25 16:31:29
I have the "clicked" version apparently that was posted by miller on Nov 8, 2012. I haven't had a chance to listen to this one closely so I may have just missed it, but where are the clicks?
Pisces 2013-01-25 23:41:24
Thanks!
fudoki 2013-01-26 00:11:10
Thx Charlie! You're the best!
scratchie 2013-01-26 09:07:34
Thanks Charlie! This one is an all-time classic.
germain 2013-01-26 09:46:03
The sound quality is pristine & ranks as good as it gets.
kayatosh 2013-01-26 14:18:59
was loving the previous copy and was oblivious to any clicks. got this one now. thank you kindly.
bonghitwillie 2013-01-27 13:57:54
is this really better than the one u/L'd 2 months ago? should i erase that and d/L this one? my hd is almost full. i made cds of the one from 2 months ago for a friend, should i take back those cds and make new cds for him?
geewiz010 2013-01-28 18:47:33
Thanks for the upgrade!
joeyjoejoe25 2013-02-19 16:30:57
I finally sat down and listened to the "clicked" version. With headphones, while doing some other work, I didn't notice the clicks until "Don't Ease Me In." Then, I started hearing them more consistently through the rest of the songs. Honestly, I don't think I would have noticed them unless someone pointed them out. But, since I heard them once I know I will always hear them, so I'm downloading the "de-clicked" version. Hope this helps.
NaknDead 2014-08-02 22:20:36
Always loved this Birdsong on tape, and this version shares the groove. Thx for this definitive archival collaboration.
jazzlady 2014-11-15 23:39:43
Thanks!

Add a comment


http://etree.org : http://db.etree.org : http://forums.etree.org : http://wiki.etree.org : Legal : RSS Feed

Contents designed & maintained by the etree.org volunteers
1998-2014, etree.org, except where noted. All Rights Reserved.
Read our terms of service and privacy guidelines