bt.etree.org
etree.org Community Bittorrent Tracker
ArtistGrateful Dead
Showgd72-11-19.sbd.miller.123577.flac24 - New Declicked Version
Report this as
non-Trade-Friendly
Email us
Torrentgd72-11-19.sbd.miller.123577.flac24.torrent (click to download)
Downloads asgd72-11-19.sbd.miller.123577.flac24
Info hash3d78535cc6993a57a61b844f1039ecefd761e086
db linkhttp://db.etree.org/shn/123577 | Show | Source
DescriptionGrateful Dead - November 19, 1972
Hofheinz Pavilion - Houston, TX

Recording Info:
SBD -> Master Reel -> Reel (7.5ips 2 track/Dolby B)

Transfer Info:
Reel (Dolby B Decoded) -> WAV (24bit/96k)

Mastering Info:
WAV (24bit/96k) -> Adobe Audition v3.0 -> Samplitude Professional v11.2.1 -> FLAC/24
(1 DVD FLAC)

Reels supplied and Transferred By David Gans
Mastered By Charlie Miller
charliemiller87@earthlink.net
January 24, 2013

Notes:
-- This is a cleaned up version of shnid=122784
-- I removed the pops and clicks (I hope I got them all)
-- Mix problems in Bertha
-- Cut at 0:27 in I Know You Rider
-- Cut at 0:13 in Playing In The Band
-- Cut at 2:46 in Weather Report Suite Prelude
-- This is far from perfect but is still an upgrade to other sources
-- Thanks to Joe B. Jones for his help with the pitch correction

Set 1:
s1t01 - Bertha
s1t02 - Me And My Uncle
s1t03 - Sugaree
s1t04 - Beat It On Down The Line
s1t05 - Bird Song
s1t06 - Black Throated Wind
s1t07 - Don't Ease Me In
s1t08 - Mexicali Blues
s1t09 - Box Of Rain
s1t10 - Stars And Stripes Forever tuning
s1t11 - Tomorrow Is Forever
s1t12 - Big River
s1t13 - China Cat Sunflower ->
s1t14 - I Know You Rider
s1t15 - Nickeldeon tuning
s1t16 - Playing In The Band
s1t17 - Casey Jones

Set 2:
s2t01 - Tuning
s2t02 - Promised Land
s2t03 - Ramble On Rose
s2t04 - El Paso
s2t05 - Stella Blue
s2t06 - Jack Straw
s2t07 - Dixie tuning
s2t08 - Dark Star ->
s2t09 - Weather Report Suite Prelude ->
s2t10 - Mississippi Half-Step Uptown Toodeloo
s2t11 - Around And Around
s2t12 - Big Railroad Blues
s2t13 - Sugar Magnolia ->
s2t14 - Goin' Down The Road Feeling Bad


SHNTOOL OUTPUT:
length expanded size cdr WAVE problems fmt ratio filename
5:18.882 183676082 B cxx -- ---xx flac 0.5672 gd72-11-19s1t01.flac
3:04.507 106275818 B cxx -- ---xx flac 0.5772 gd72-11-19s1t02.flac
7:02.002 243072998 B cxx -- ---xx flac 0.5531 gd72-11-19s1t03.flac
3:19.901 115143008 B cxx -- ---xx flac 0.5634 gd72-11-19s1t04.flac
11:25.623 394919126 B cxx -- ---xx flac 0.5572 gd72-11-19s1t05.flac
6:43.365 232338104 B cxx -- ---xx flac 0.5561 gd72-11-19s1t06.flac
3:37.630 125355032 B cxx -- ---xx flac 0.5527 gd72-11-19s1t07.flac
4:25.895 153155708 B cxx -- ---xx flac 0.5603 gd72-11-19s1t08.flac
5:33.701 192211892 B cxx -- ---xx flac 0.5524 gd72-11-19s1t09.flac
0:56.959 32808392 B cxx -- ---xx flac 0.5517 gd72-11-19s1t10.flac
5:31.669 191041304 B cxx -- ---xx flac 0.5477 gd72-11-19s1t11.flac
4:37.880 160058984 B cxx -- ---xx flac 0.5547 gd72-11-19s1t12.flac
7:06.538 245686160 B cxx -- ---xx flac 0.5530 gd72-11-19s1t13.flac
5:04.368 175315904 B cxx -- ---xx flac 0.5581 gd72-11-19s1t14.flac
0:31.048 17883446 B cxx -- ---xx flac 0.5190 gd72-11-19s1t15.flac
21:15.929 734935196 B cxx -- ---xx flac 0.5459 gd72-11-19s1t16.flac
5:59.807 207248756 B cxx -- ---xx flac 0.5601 gd72-11-19s1t17.flac
2:16.698 78738050 B cxx -- ---xx flac 0.5273 gd72-11-19s2t01.flac
3:17.362 113680382 B cxx -- ---xx flac 0.5698 gd72-11-19s2t02.flac
6:53.701 238291778 B cxx -- ---xx flac 0.5462 gd72-11-19s2t03.flac
4:24.502 152353142 B cxx -- ---xx flac 0.5556 gd72-11-19s2t04.flac
8:15.264 285271874 B cxx -- ---xx flac 0.5349 gd72-11-19s2t05.flac
6:05.306 210416150 B cxx -- ---xx flac 0.5468 gd72-11-19s2t06.flac
1:07.994 39164678 B cxx -- ---xx flac 0.5386 gd72-11-19s2t07.flac
25:40.219 887166278 B cxx -- ---xx flac 0.5487 gd72-11-19s2t08.flac
6:00.730 207780734 B cxx -- ---xx flac 0.5956 gd72-11-19s2t09.flac
8:32.233 295046258 B cxx -- ---xx flac 0.5746 gd72-11-19s2t10.flac
5:03.292 174696332 B cxx -- ---xx flac 0.5639 gd72-11-19s2t11.flac
4:54.467 169613300 B cxx -- ---xx flac 0.5545 gd72-11-19s2t12.flac
8:35.446 296897150 B cxx -- ---xx flac 0.5738 gd72-11-19s2t13.flac
7:55.287 273765428 B cxx -- ---xx flac 0.5527 gd72-11-19s2t14.flac
200:38.205 6934007444 B 0.5554 (31 files)
Checksums3991cb891b4b53122ec23ca4f154b5aa *gd72-11-19s1t01.flac
196fd86a11cfb4219dcf5e65f9be1405 *gd72-11-19s1t02.flac
b2dbe6a10d0ae3767ff0148a88ac4c2d *gd72-11-19s1t03.flac
a406df853e57e55b5d29156dfad61c14 *gd72-11-19s1t04.flac
2378055f0fd24625c5ad748407ae985d *gd72-11-19s1t05.flac
a37835fbb70382937e46ddf1de731044 *gd72-11-19s1t06.flac
3de8b86a75e934664142e91d01358001 *gd72-11-19s1t07.flac
14a80d19325032e221a5c9b742e65481 *gd72-11-19s1t08.flac
b38de72ab110cf8cde39195ee7b7efae *gd72-11-19s1t09.flac
c4ba46d7ecde9ee270f2a305210f270f *gd72-11-19s1t10.flac
ab9f58fdd153f7ae64901797d609e66e *gd72-11-19s1t11.flac
0ebd771802063de66d0b2fbeb122d14e *gd72-11-19s1t12.flac
067942ed239fbbcb2790b8829d978934 *gd72-11-19s1t13.flac
fc387e926da97ae05a2b489cb0ff55bd *gd72-11-19s1t14.flac
bd8ea392e3b70ae492ed08a8c09c76a6 *gd72-11-19s1t15.flac
0e886f69e136cc12263f02bcbab33d18 *gd72-11-19s1t16.flac
6bfa61bc88b14f6ab7a7b1d9ce0e7f71 *gd72-11-19s1t17.flac
8d340703de7e857acd18f3e75f6b8cc6 *gd72-11-19s2t01.flac
61191279f728e0e9d5cb16b6bf18ad85 *gd72-11-19s2t02.flac
bfc807265b5b6b470e61e78faadde573 *gd72-11-19s2t03.flac
8baccfef46bbf1d65ae24e79b1038ed7 *gd72-11-19s2t04.flac
4e744dc627eca4988f59569806328180 *gd72-11-19s2t05.flac
9f57d647e0f34723018b3253192f219e *gd72-11-19s2t06.flac
efddbb15224473db509fb7514bf90c65 *gd72-11-19s2t07.flac
b286fcf8b6ee2a0f26647e226ab4bbf6 *gd72-11-19s2t08.flac
a98597b492ba4269b41e2c1de20e95e2 *gd72-11-19s2t09.flac
8fddd46d5b04b4b28758acd571819cf4 *gd72-11-19s2t10.flac
9a82966262a329e54910b3ed52d6e007 *gd72-11-19s2t11.flac
dcbfec62ed199f2e816283161d47db43 *gd72-11-19s2t12.flac
13dbecd200d8cde69deeaadacfa5edff *gd72-11-19s2t13.flac
c184f8d937ac21d9f03733bd833bbfc8 *gd72-11-19s2t14.flac
TypeGrateful Dead
Last seederLast activity 5:41 ago
Size3.587 GB (3851317846 Bytes)
Added2013-01-25 12:09:25
Views0
Hits568
Snatched271 times
Upped byWHARFRAT73
Num files
[See full list]
34 files
Peers
[See full list]
2 seeders, 0 leechers = 2 peers total

Add a comment

1in10,000 2013-01-25 12:39:56
I've always felt that Houston was too close to New Orleans for my taste.

But since you've gone through the trouble of de-clicking, it would be rude of me not to give it a listen.

Thanks!
WHARFRAT73 2013-01-25 12:48:14
I bet Charlie appreciates your flexability on the Houston issue.

Not to mention that this show is like a greatest hit album. I think the Other One is the only one not played at this show.
timk 2013-01-25 16:35:16
Time to finally upgrade from my old cassette copy! Thanks so much for the tasty 24 bit version!
:P 2013-01-25 17:38:20
" I think the Other One is the only one not played at this show."

...and He's Gone a standard for 72....and some of my favorites,too
ledstones 2013-01-26 10:45:59
What's the diff I the one posted before?
Harvoo 2013-01-29 11:07:48
As always many thanks to all involved.
The "mix problems" in Bertha provide an interesting focused glimpse of Phil's unique way of dancing around the bass line. G-d bless Phil Lesh. Long live the memories and the music of the Grateful Dead.
TPelts 2013-02-05 14:19:01
One of my first tapes. listened to this show so much i sometimes forgot the clicks. Was always hoping for an upgrade. thank you all.

Add a comment


http://etree.org : http://db.etree.org : http://forums.etree.org : http://wiki.etree.org : Legal : RSS Feed

Contents designed & maintained by the etree.org volunteers
1998-2014, etree.org, except where noted. All Rights Reserved.
Read our terms of service and privacy guidelines