bt.etree.org
etree.org Community Bittorrent Tracker
ArtistGrateful Dead
Showgd1972-10-18.sbd.matera.123571.sbeok.flac16
Report this as
non-Trade-Friendly
Email us
Torrentgd1972-10-18.sbd.matera.123571.sbeok.flac16.torrent (click to download)
Downloads asgd1972-10-18.sbd.matera.123571.sbeok.flac16
Info hash56e0a54280a689f9f665d6607100bb8543342427
db linkhttp://db.etree.org/shn/123571 | Show | Source
Descriptiongd1972-10-18.sbd.matera.123571.sbeok.flac16
Based on gd72-10-18.sbd.weir.7295.sbeok.shnf

(Actually, from my own discs which were virtually idential to
7295, which is SBD > MR > Cass > DAT > CDR)

The (Fabulous) Fox Theatre
St. Louis, MO

D2 fixes SHN > WAV (MKW) > CE 2K + Clickfix > SHN (MKW)

Further remastering by Phil Matera via Cool Edit 2000
Unknown source (probably shnid 7295) CD > wav > cool edit 2000 > flac

(see more notes below)

Disc 1
1. Bertha
2. Me and My Uncle
3. Don't Ease Me In
4. Mexicali Blues
5. Brown Eyed Women
6. Beat It On Down the Line
7. Bird Song
8. Big River
9. Loser
10. Jack Straw
11. Big Railroad Blues
12. El Paso

Disc 2
1. China Cat Sunflower >
2. I Know You Rider
3. Playin' In the Band >
4. Drums >
5. Dark Star >
6. Morning Dew >
7. Playin' In the Band

Disc 3
1. Deal
2. Promised Land
3. Brokedown Palace
4. One More Saturday Night
5. Casey Jones

++++++++++++++++++++++++++++++++++++++++++++++++++++++++++++++++++++++++++++++

Phil Matera, 1/24/2013, gd1972-10-18.sbd.matera.123571.sbeok.flac16

As always, I started "remastering" with the intent of doing it quickly, but
adequately enough to my ears. That is never enough (as I am sure you
musical editing freaks are aware) so I went through a number of iterations to
get a very much enhanced recording. I was pleasantly surprised at how nicely
(imho) that this came out.

One thing that made it difficult to make it sound pristine, is that there
is an inherent distortion on the right channel. What I like about the distortion,
is that it is mostly on Weir's guitar, and it gives him a more distinctive sound.

All tracks were balanced via Cool Edit. The amplitudes of many tracks
were very low. These were all brought up to a reasonable level. Jerry
was way low in the mix, so a bit of the balance was edged towards the left
channel. All tracks were Quick-Filtered to bring out more of the highs
and bring back the sorely missing bass lines.

Fixes: cuts on Saturday Night and Morning Dew > Playin'
taken from 7295 and 're-massaged" to match all other tracks.

++++++++++++++++++++++++++++++++++++++++++++++++++++++++++++++++++++++++++++++



length expanded size cdr WAVE problems fmt ratio filename
6:29.02 68624348 B --- -- ---xx flac 0.6102 gd72-10-18d1t01.flac
3:49.45 40501484 B --- -- ---xx flac 0.5832 gd72-10-18d1t02.flac
3:37.57 38412908 B --- -- ---xx flac 0.6233 gd72-10-18d1t03.flac
3:47.43 40143980 B --- -- ---xx flac 0.6099 gd72-10-18d1t04.flac
5:14.69 55551932 B --- -- ---xx flac 0.6063 gd72-10-18d1t05.flac
3:28.66 36846476 B --- -- ---xx flac 0.6199 gd72-10-18d1t06.flac
13:00.13 137622620 B --- -- ---xx flac 0.6116 gd72-10-18d1t07.flac
4:36.34 48766412 B --- -- ---xx flac 0.6327 gd72-10-18d1t08.flac
6:30.06 68810156 B --- -- ---xx flac 0.6132 gd72-10-18d1t09.flac
6:05.54 64513052 B --- -- ---xx flac 0.6049 gd72-10-18d1t10.flac
5:18.00 56095244 B --- -- ---xx flac 0.5863 gd72-10-18d1t11.flac
4:28.03 47282300 B --- -- ---xx flac 0.5763 gd72-10-18d1t12.flac
4:55.17 52078028 B --- -- ---xx flac 0.5765 gd72-10-18d2t01.flac
6:07.10 64762364 B --- -- ---xx flac 0.5801 gd72-10-18d2t02.flac
15:47.65 167203724 B --- -- ---xx flac 0.5809 gd72-10-18d2t03.flac
2:12.11 23310716 B --- -- ---xx flac 0.5508 gd72-10-18d2t04.flac
28:20.09 299901212 B --- -- ---xx flac 0.5605 gd72-10-18d2t05.flac
11:06.40 117576524 B --- -- ---xx flac 0.5530 gd72-10-18d2t06.flac
5:25.61 57473516 B --- -- ---xx flac 0.5682 gd72-10-18d2t07.flac
4:46.26 50511596 B --- -- ---xx flac 0.6075 gd72-10-18d3t01.flac
3:09.09 33360812 B --- -- ---xx flac 0.6034 gd72-10-18d3t02.flac
5:42.01 60331196 B --- -- ---xx flac 0.6083 gd72-10-18d3t03.flac
4:38.39 49130972 B --- -- ---xx flac 0.6178 gd72-10-18d3t04.flac
7:05.17 75010028 B --- -- ---xx flac 0.6101 gd72-10-18d3t05.flac
165:42.22 1753821600 B 0.5894 (24 files)
Checksumsgd72-10-18d1t01.flac:b41a4bd9a21c226f2394e6700f06d7dd<br />
gd72-10-18d1t02.flac:2eac5b92370eacc716e420257dc008e5<br />
gd72-10-18d1t03.flac:0d11b942bc1c385d030297532ec73df2<br />
gd72-10-18d1t04.flac:0347cf308073e73109a8e4c99099a097<br />
gd72-10-18d1t05.flac:87684264ffb25a8d30007791a5370442<br />
gd72-10-18d1t06.flac:d0d7406726815a29b2dcb9ecb1f50608<br />
gd72-10-18d1t07.flac:dc38362fb0d7e5650238c75d12ff18d2<br />
gd72-10-18d1t08.flac:2db455393ac062d8e3dabc54ec67bd11<br />
gd72-10-18d1t09.flac:647c669d523fb4328da5a8034ad61df9<br />
gd72-10-18d1t10.flac:46bb00585d1d30c87b5edae1995aee92<br />
gd72-10-18d1t11.flac:4da79c72e3b242b8d2ad7683a0144d0f<br />
gd72-10-18d1t12.flac:47218395e82114d3c46f01dae9d048a9<br />
gd72-10-18d2t01.flac:4f5c3bfea89eff250e1d7ecb94c1f418<br />
gd72-10-18d2t02.flac:e0c43f2633e1ef0042a4aaba26a816f0<br />
gd72-10-18d2t03.flac:827e2f18a31796aca33f93fee6ff1c45<br />
gd72-10-18d2t04.flac:7e12bac0d314102500375d9da5035b43<br />
gd72-10-18d2t05.flac:17b14e1a9bcdf0b173af0b9c7d4eaf9a<br />
gd72-10-18d2t06.flac:35b8e933a248697c1220b0daf59ba110<br />
gd72-10-18d2t07.flac:a02bafcdfb56fee0b16fcd29b5dbf388<br />
gd72-10-18d3t01.flac:93fcf7bcc3d51f5c5fc822c6e417698b<br />
gd72-10-18d3t02.flac:3a703ee44689911684c4a0557ece93d2<br />
gd72-10-18d3t03.flac:13bc7cf551fbd652fc2c60e1949ac7ee<br />
gd72-10-18d3t04.flac:94c6cc16db241482f917c2b708f3389f<br />
gd72-10-18d3t05.flac:50863564417e6005e183ff4c45c01d21<br />
TypeGrateful Dead
Last seederLast activity 6:49 ago
Size985.89 MB (1033784466 Bytes)
Added2013-01-25 13:04:01
Views3
Hits986
Snatched674 times
Upped byphilmatera
Num files27 files
File List
[Hide list]
filenamesizemd5
gd1972-10-18.sbd.matera.123571.sbeok.flac16.txt4.4 kBN/A
gd72-10-18.123571.ffp1.3 kBN/A
gd72-10-18.123571.md51.3 kBN/A
gd72-10-18d1t01.flac39.93 MBN/A
gd72-10-18d1t02.flac22.53 MBN/A
gd72-10-18d1t03.flac22.83 MBN/A
gd72-10-18d1t04.flac23.35 MBN/A
gd72-10-18d1t05.flac32.12 MBN/A
gd72-10-18d1t06.flac21.78 MBN/A
gd72-10-18d1t07.flac80.27 MBN/A
gd72-10-18d1t08.flac29.43 MBN/A
gd72-10-18d1t09.flac40.24 MBN/A
gd72-10-18d1t10.flac37.22 MBN/A
gd72-10-18d1t11.flac31.36 MBN/A
gd72-10-18d1t12.flac25.99 MBN/A
gd72-10-18d2t01.flac28.63 MBN/A
gd72-10-18d2t02.flac35.83 MBN/A
gd72-10-18d2t03.flac92.63 MBN/A
gd72-10-18d2t04.flac12.24 MBN/A
gd72-10-18d2t05.flac160.29 MBN/A
gd72-10-18d2t06.flac62.01 MBN/A
gd72-10-18d2t07.flac31.14 MBN/A
gd72-10-18d3t01.flac29.26 MBN/A
gd72-10-18d3t02.flac19.20 MBN/A
gd72-10-18d3t03.flac35.00 MBN/A
gd72-10-18d3t04.flac28.95 MBN/A
gd72-10-18d3t05.flac43.64 MBN/A
Peers
[See full list]
6 seeders, 0 leechers = 6 peers total

Add a comment

sprobeck 2013-01-25 14:39:47
Thanks~
cdjones 2013-01-25 18:03:55
Thanks, Phil!

RowJimmy1 2013-01-25 18:20:31
Thanks so much, I'm very GRATEFUL!!!
azwoogie 2013-01-25 22:17:22
Thanks. Looking forward to comparing to 7995.
azwoogie 2013-01-25 22:17:50
That should say 7295
Pisces 2013-01-25 23:40:29
Thanks!
thecat18 2013-01-25 23:48:36
Thanks for sharing, I was born on this day.
germain 2013-01-26 09:43:31
Thanks! Really sweet listen.
ECB 2013-01-27 11:32:21
Thanks Phil for all the work that must've gone into this one. What a joy to find a show I never new existed from one of my favorite years of the Dead.
ozjeremy 2013-01-28 16:02:33
Many thanks!
geewiz010 2013-01-28 18:46:07
Thanks for this!
philmatera 2013-01-29 01:31:41
Thanks, guys! You do my heart good!

Add a comment


http://etree.org : http://db.etree.org : http://forums.etree.org : http://wiki.etree.org : Legal : RSS Feed

Contents designed & maintained by the etree.org volunteers
1998-2014, etree.org, except where noted. All Rights Reserved.
Read our terms of service and privacy guidelines