bt.etree.org
etree.org Community Bittorrent Tracker
ArtistOther
ShowDelta Sanints Smith's Olde Bar Atlanta, Georgia 1/24/2013 (Schoeps CCM4V'S FOB)
Report this as
non-Trade-Friendly
Email us
Torrentdelta2013-01-24.flac16.torrent (click to download)
Downloads asdelta2013-01-24.flac16
Info hash1443c8c18c069068e53bbeeea0d900d99c0ee997
DescriptionDelta Saints
Smith's Olde Bar
Atlanta, Georgia
1/24/2013

Source: Schoeps CCM4V'S(din)>Lunatec V2>Benchmark AD2K>
Sound Devices 722 (24/48)
FOB/DFC/KFC/ZFC/AARP 15' From Stage, 7' High
DSP: Sound Devices 722>Sound Forge 9.0>CD Wave>flac(16)
Recorded By: Z-Man
Seeded By: Z-Man

Disc I

01 Pray On
02 Liar
03 Death Letter Jubilee
04 Jezzebel
05 Drink It Slow
06 Out To Sea >
07 The Devil's Creek
08 ?
09 ?

Flac Fingerprint

delta2013-01-24d01t01.flac:b7bf279fff36f98e824dbdd2176c25f0
delta2013-01-24d01t02.flac:08b4c7f24289f773b84979e1029832fa
delta2013-01-24d01t03.flac:d2321056da32fb80dfbb638390112faa
delta2013-01-24d01t04.flac:3cc327645ebf54a21c70eac58dfc43e9
delta2013-01-24d01t05.flac:a70323db066b40591e6e67a7c1eef532
delta2013-01-24d01t06.flac:e4b2904f324583d9c30d40c0da0f72e2
delta2013-01-24d01t07.flac:8669a8f60efe561b3e2ad69cd58e0c86
delta2013-01-24d01t08.flac:131688ff42c0050a1502d49b4cfe709e
delta2013-01-24d01t09.flac:2c1221ecfa26d51e4795ed27fe52fa21

Shntool

length expanded size cdr WAVE problems fmt ratio filename
10:49.49 114598892 B --- -- ---xx flac 0.4752 delta2013-01-24d01t01.flac
3:52.39 41016572 B --- -- ---xx flac 0.5383 delta2013-01-24d01t02.flac
5:54.20 62492684 B --- -- ---xx flac 0.4731 delta2013-01-24d01t03.flac
3:46.57 40000508 B --- -- ---xx flac 0.4420 delta2013-01-24d01t04.flac
5:26.31 57579356 B --- -- ---xx flac 0.5021 delta2013-01-24d01t05.flac
4:35.59 48648812 B --- -- ---xx flac 0.3263 delta2013-01-24d01t06.flac
3:26.43 36439580 B --- -- ---xx flac 0.5571 delta2013-01-24d01t07.flac
4:31.63 47952620 B --- -- ---xx flac 0.5031 delta2013-01-24d01t08.flac
4:49.19 51024332 B --- -- ---xx flac 0.5458 delta2013-01-24d01t09.flac
47:13.05 499753356 B 0.4819 (9 files)












Checksumsdelta2013-01-24d01t01.flac:b7bf279fff36f98e824dbdd2176c25f0
delta2013-01-24d01t02.flac:08b4c7f24289f773b84979e1029832fa
delta2013-01-24d01t03.flac:d2321056da32fb80dfbb638390112faa
delta2013-01-24d01t04.flac:3cc327645ebf54a21c70eac58dfc43e9
delta2013-01-24d01t05.flac:a70323db066b40591e6e67a7c1eef532
delta2013-01-24d01t06.flac:e4b2904f324583d9c30d40c0da0f72e2
delta2013-01-24d01t07.flac:8669a8f60efe561b3e2ad69cd58e0c86
delta2013-01-24d01t08.flac:131688ff42c0050a1502d49b4cfe709e
delta2013-01-24d01t09.flac:2c1221ecfa26d51e4795ed27fe52fa21
TypeOther
Last seederLast activity 168 days, 04:48:03 ago
Size229.69 MB (240846820 Bytes)
Added2013-01-25 15:05:49
Views0
Hits163
Snatched22 times
Upped byzmanatl
Num files10 files
File List
[Hide list]
filenamesizemd5
delta2013-01-24d01t01.flac51.94 MBN/A
delta2013-01-24d01t03.flac28.19 MBN/A
delta2013-01-24d01t05.flac27.57 MBN/A
delta2013-01-24d01t09.flac26.56 MBN/A
delta2013-01-24d01t08.flac23.01 MBN/A
delta2013-01-24d01t02.flac21.06 MBN/A
delta2013-01-24d01t07.flac19.36 MBN/A
delta2013-01-24d01t04.flac16.86 MBN/A
delta2013-01-24d01t06.flac15.14 MBN/A
delta2013--01-24.textfile.txt2.0 kBN/A
Peers
[See full list]
1 seeder, 0 leechers = 1 peer total

Add a comment

axomxa 2013-01-25 20:21:40
Nice Z. Gonna check this out.
hobobabylon 2013-01-26 04:44:27
thanks, they come to europe in a few months, will check them out then, ................ how is their stage presence?
indydarkstar 2013-01-26 07:13:15
thanks zz

Add a comment


http://etree.org : http://db.etree.org : http://forums.etree.org : http://wiki.etree.org : Legal : RSS Feed

Contents designed & maintained by the etree.org volunteers
1998-2014, etree.org, except where noted. All Rights Reserved.
Read our terms of service and privacy guidelines