bt.etree.org
etree.org Community Bittorrent Tracker
ArtistWidespread Panic
ShowWidespread Panic Hard Rock Hotel On The Beach Punta Cana, Dominican Republic 1/26/2013 (Schoeps CCM4V'S)
Report this as
non-Trade-Friendly
Email us
Torrentwsp2013-01-26.flac16.torrent (click to download)
Downloads aswsp2013-01-26.flac16
Info hashca4b874f50bcef49cfb773ac3c1d97f45b8cc88e
db linkhttp://db.etree.org/shn/123644 | Show | Source
DescriptionWidespread Panic
Hard Rock Hotel
On The Beach
Punta Cana, Dominican Republican
1/26/2013

Source: Schoeps CCM4V'S(din)>Lunatec V2>Benchmark AD2K>
Sound Devices 722 (24/48)
SOB/DFC/KFC/ZFC/AARP 6From Stage, 7' High
DSP: Sound Devices 722>Sound Forge 9.0>CD Wave>flac(16)
Recorded By: Z-Man
Seeded By: Z-Man

Disc I

01 Tuning
02 Surprise Valley
03 Tuning
04 Bust It Big

Flac Fingerprint

wsp2013-01-26d01t01.flac:be229e1fc24c493715db267f5146bc60
wsp2013-01-26d01t02.flac:39f16b9a31f5420db4822d866311b6df
wsp2013-01-26d01t03.flac:cb7b10361acdbec7d5c9310372b289eb
wsp2013-01-26d01t04.flac:4af87b1a5beb2351e07ba1db5ac1bb74

Shntool

length expanded size cdr WAVE problems fmt ratio filename
0:49.01 8645996 B --- -- ---xx flac 0.3235 wsp2013-01-26d01t01.flac
10:23.72 110066588 B --- -- ---xx flac 0.4979 wsp2013-01-26d01t02.flac
1:21.23 14342540 B --- -- ---xx flac 0.2912 wsp2013-01-26d01t03.flac
9:02.69 95771132 B --- -- ---xx flac 0.4726 wsp2013-01-26d01t04.flac
21:37.15 228826256 B 0.4678 (4 files)



Checksumswsp2013-01-26d01t01.flac:be229e1fc24c493715db267f5146bc60<br />
wsp2013-01-26d01t02.flac:39f16b9a31f5420db4822d866311b6df<br />
wsp2013-01-26d01t03.flac:cb7b10361acdbec7d5c9310372b289eb<br />
wsp2013-01-26d01t04.flac:4af87b1a5beb2351e07ba1db5ac1bb74
TypeWidespread Panic
Last seederLast activity 21:53 ago
Size102.09 MB (107044049 Bytes)
Added2013-01-27 01:26:59
Views0
Hits503
Snatched267 times
Upped byzmanatl
Num files
[See full list]
5 files
Peers
[See full list]
2 seeders, 0 leechers = 2 peers total

Add a comment

barren 2013-01-27 01:48:54
Way to go young fella!!

zmanatl 2013-01-27 01:55:46
Here is a nice lil' treat our boys gave us. Everyone was talking about the "rumor" of a 9:00 pm soundcheck. Dany and I scarfed down what was left of our Hibachi dinner at Zen as we were running to the room to grab gear and make the scene. Got there at 9:00 and Dros, Chris, and Paul were all tinkering at the soundboard. Looks like we were getting a rumor come true.

We set up next to the board and chewed the fat with everyone there. The boys gave us a 20 minute showing of Surprise Valley and Big Bust. I would venture to say that about 1,000 fans got to dance in the sand. Great hanging with Dany, Jon and Erica, Bennett and Jackie, Presley and John, Mindy Lu, and the rest of the gang!

Dinner at Zen was fair at best. We had a few pieces of assorted Sushi with the Rice Medium Rare (Under Cooked). Next was a few pieces of assorted appetizers, Spring Rolls, Pork Pot Stickers, and Grilled Chicken. The Entree plate consisted of the same Medium Rare Rice used for Fried Rice, Grilled Chicken, Grilled Beef (Way Overcooked), Grilled Calimari, Grilled Shrimp, and Grilled Vegetables. We had a few Jack Daniels and Cokes that did not have very much ice in them.

After the set, I had it processed and ready to go within an hour, that is until the BT site was down. Off to the Pizza Shop for Margherita Pizza, and Pepperoni Pizza. Danny and I untapped a bottle of Argentina Wine that was fair at best.

Enjoy show #14 of 2013!

Here is a nice video Dany grabbed with his smart phone:
http://www.youtube.com/watch?v=is5DiDz1Czo


Gibblet 2013-01-27 02:09:33
Thanks for this treat! I just have to make it till April before I get my fill down south. Thanks alot! Gibblet
nickautry 2013-01-27 02:36:25
funny. freak.
Tomahawk Kid 2013-01-27 03:01:06
Thank you very much!
csrowern 2013-01-27 06:01:27
THANK YOU...
ahhh the magic of the sond check teasers
LOVE YOU TAPERS!!!
Tom_of_Mule 2013-01-27 08:58:42
Thanks Z !
Tom
pjch1105 2013-01-27 11:07:10
Wow, this is a surprise.

You pretty much summed up every resort experience I've had as far as food is concerned-fair at best. But a lot of it. Looking forward to the next few nights.

Thanks Zman!
hardyross 2013-01-27 16:58:01
I can't believe I am actually downloading this...
zmanatl 2013-01-27 17:35:55
I can't believe you and Elisabeth are not by my side , especially when they bust out Flicker Jam!
dnuggs 2013-01-28 15:30:45
Sounds great!
Thanks Z

Add a comment


http://etree.org : http://db.etree.org : http://forums.etree.org : http://wiki.etree.org : Legal : RSS Feed

Contents designed & maintained by the etree.org volunteers
1998-2014, etree.org, except where noted. All Rights Reserved.
Read our terms of service and privacy guidelines