bt.etree.org
etree.org Community Bittorrent Tracker
ArtistOther
ShowJulie Gribble Smith's Olde Bar Atlanta, Georgia 1/25/2013 (Schoeps CCM4V'S FOB)
Report this as
non-Trade-Friendly
Email us
Torrentjulie2013-01-25.flac16.torrent (click to download)
Downloads asjulie2013-01-25.flac16
Info hash158832fe1789d1cad96aaf858aa42c5d86dd2978
DescriptionJulie Gribble
Smith's Olde Bar
Atlanta, Georgia
1/24/2013

Source: Schoeps CCM4V'S(din)>Lunatec V2>Benchmark AD2K>
Sound Devices 722 (24/48)
FOB/DFC/KFC/ZFC/AARP 15' From Stage, 7' High
DSP: Sound Devices 722>Sound Forge 9.0>CD Wave>flac(16)
Recorded By: Z-Man
Seeded By: Z-Man

Disc I

01 Little Bit Lonely
02 Broken Heart
03 Hopin' The Right One Wins
04 You Won't See Me Again
05 ?
06 Fall In Love Again
07 Give It To Leaving
08 Honky Tonk Ladies
09 ?
10 The Old Way
11 Letting Go

Flac Fingerprint

julie2013-01-25d01t01.flac:23f4c18d8549d0a71ab53ea4458f9eea
julie2013-01-25d01t02.flac:21728493f2126d0b726209d38fde34bf
julie2013-01-25d01t03.flac:800b4253bef76fabad2d9fa0f342394a
julie2013-01-25d01t04.flac:17ba7753f75d0afa711d40fd36722f0f
julie2013-01-25d01t05.flac:5c50032ee8ee1fab9a507cc07c950201
julie2013-01-25d01t06.flac:7e03e0d34bd66749255c629636a13572
julie2013-01-25d01t07.flac:dfb38f9fb20e942cecd91c9d2f220c2b
julie2013-01-25d01t08.flac:b3b538070f4ec9a82ef07ee5d3dd51f2
julie2013-01-25d01t09.flac:f876865776726a5b0a644e64eacfd4d9
julie2013-01-25d01t10.flac:f1f4ad7bd5a76311360260d28f7458bd
julie2013-01-25d01t11.flac:66d204d207244a642834810610378dac

Shntool

length expanded size cdr WAVE problems fmt ratio filename
4:08.03 43754300 B --- -- ---xx flac 0.4936 julie2013-01-25d01t01.flac
5:27.09 57704012 B --- -- ---xx flac 0.4202 julie2013-01-25d01t02.flac
5:02.25 53331644 B --- -- ---xx flac 0.4566 julie2013-01-25d01t03.flac
4:49.49 51094892 B --- -- ---xx flac 0.4681 julie2013-01-25d01t04.flac
5:19.65 56424524 B --- -- ---xx flac 0.4039 julie2013-01-25d01t05.flac
4:32.43 48081980 B --- -- ---xx flac 0.4457 julie2013-01-25d01t06.flac
5:49.11 61589516 B --- -- ---xx flac 0.4286 julie2013-01-25d01t07.flac
5:09.51 54627596 B --- -- ---xx flac 0.4915 julie2013-01-25d01t08.flac
5:08.52 54453548 B --- -- ---xx flac 0.4280 julie2013-01-25d01t09.flac
4:28.32 47350508 B --- -- ---xx flac 0.5002 julie2013-01-25d01t10.flac
5:20.46 56556236 B --- -- ---xx flac 0.4284 julie2013-01-25d01t11.flac
55:16.11 584968756 B 0.4492 (11 files)




Checksumsjulie2013-01-25d01t01.flac:23f4c18d8549d0a71ab53ea4458f9eea
julie2013-01-25d01t02.flac:21728493f2126d0b726209d38fde34bf
julie2013-01-25d01t03.flac:800b4253bef76fabad2d9fa0f342394a
julie2013-01-25d01t04.flac:17ba7753f75d0afa711d40fd36722f0f
julie2013-01-25d01t05.flac:5c50032ee8ee1fab9a507cc07c950201
julie2013-01-25d01t06.flac:7e03e0d34bd66749255c629636a13572
julie2013-01-25d01t07.flac:dfb38f9fb20e942cecd91c9d2f220c2b
julie2013-01-25d01t08.flac:b3b538070f4ec9a82ef07ee5d3dd51f2
julie2013-01-25d01t09.flac:f876865776726a5b0a644e64eacfd4d9
julie2013-01-25d01t10.flac:f1f4ad7bd5a76311360260d28f7458bd
julie2013-01-25d01t11.flac:66d204d207244a642834810610378dac
TypeOther
Last seederLast activity 5:16 ago
Size250.62 MB (262796191 Bytes)
Added2013-01-27 01:35:30
Views0
Hits113
Snatched16 times
Upped byzmanatl
Num files
[See full list]
12 files
Peers
[See full list]
0 seeders, 1 leecher = 1 peer total

Add a comment

gdv 2013-01-28 01:47:40
Description says Jan 24 but title and torrent say Jan 25...

...which is correct? :)

Add a comment


http://etree.org : http://db.etree.org : http://forums.etree.org : http://wiki.etree.org : Legal : RSS Feed

Contents designed & maintained by the etree.org volunteers
1998-2014, etree.org, except where noted. All Rights Reserved.
Read our terms of service and privacy guidelines