bt.etree.org
etree.org Community Bittorrent Tracker
ArtistOther
ShowBlue Dogs Smith's Olde Bar Atlanta, Georgia 1/25/2013 (Schoeps CCM4V'S FOB)
Report this as
non-Trade-Friendly
Email us
Torrentbluedogs2013-01-25.flac16.torrent (click to download)
Downloads asbluedogs2013-01-25.flac16
Info hashc7117db16787d43c93c429b1d64486ac76d5e289
DescriptionBlue Dogs
Smith's Olde Bar
Atlanta, Georgia
1/25/2013

Source: Schoeps CCM4V'S(din)>Lunatec V2>Benchmark AD2K>
Sound Devices 722 (24/48)
FOB/DFC/KFC/ZFC/AARP 15' From Stage, 7' High
DSP: Sound Devices 722>Sound Forge 9.0>CD Wave>flac(16)
Recorded By: Z-Man
Seeded By: Z-Man

Disc I

01 ? >
02 ?
03 I'd Give Anything >
04 River Material
05 Band Introductions
06 *Walter >
07 Hobo >
08 Another Man Done Gone
09 Lay Me A Pallet
10 ?
11 ?
12 Isabelle >
13 Greatest Feeling In The Whole Wide World >
14 Make Your Mama Proud

Disc II

01 Home Grown Tomatoes >
02 Cousin Homer
03 Banter
04 Cold Sheets Of Rain
05 Happy Birthday Jessica
06 Banter
07 ? >
08 Drum Solo >
09 ?
10 Catch The Wind
11 Banter
12 10 Degrees And Getting Colder
13 Never Been To Spain
Encore:
14 Thanks
15 ?
16 Band Introductions

* With Walter Of Julie Gribble Band On Harmonica

Flac Fingerprint

bluedogs2013-01-25d01t01.flac:b7b85df26c3f078a38fb2a93e57c4a78
bluedogs2013-01-25d01t02.flac:65e0578c8a41483a8be2141a39d3c890
bluedogs2013-01-25d01t03.flac:5ac7415177fcf244cb19f4eebcb1a9e2
bluedogs2013-01-25d01t04.flac:41a2c12db6bda6de90f7cee1adadf135
bluedogs2013-01-25d01t05.flac:0794ee59cec9ef05fe2e9891eab17c4c
bluedogs2013-01-25d01t06.flac:fe29c08894aa271f3c8bf666df538477
bluedogs2013-01-25d01t07.flac:94fc1823acda1fc7f4afd8eb4817e655
bluedogs2013-01-25d01t08.flac:be1c475268824633ae5d672a1c98db2f
bluedogs2013-01-25d01t09.flac:d2827c6bfeb4ef6bc0e1595d97d9938d
bluedogs2013-01-25d01t10.flac:d5f4c13ede4fe6b011a38387fb994c05
bluedogs2013-01-25d01t11.flac:2d6ef9133dd0ea6f4982c929e57eadf1
bluedogs2013-01-25d01t12.flac:5bead64478471459743d97563c83579c
bluedogs2013-01-25d01t13.flac:6d641b5a3fd8b01fd3e3aa26741a8f38
bluedogs2013-01-25d01t14.flac:5fdf393280c755a7d7474122e38ba682
bluedogs2013-01-25d02t01.flac:a7f6c8b8776aed88762e4ed7599789f4
bluedogs2013-01-25d02t02.flac:396bdc649fa73a209b35c9d545ef94bb
bluedogs2013-01-25d02t03.flac:2f5a11ad119c55d3ddfaf9f84394c4b4
bluedogs2013-01-25d02t04.flac:61afbc6b77c4922243e1bf2eabfea2ef
bluedogs2013-01-25d02t05.flac:89a0ba121dcbd08bfec4a5b271994bf0
bluedogs2013-01-25d02t06.flac:523359bafb128fbc1b43cc4588389cab
bluedogs2013-01-25d02t07.flac:101d8d863f2beb61fdcfe12763db4890
bluedogs2013-01-25d02t08.flac:5db171b91e95ec2778f2b41a8e57ea67
bluedogs2013-01-25d02t09.flac:be3ddbdc307f5923c7b4a14671ce19af
bluedogs2013-01-25d02t10.flac:a3fc81390b17c775bf2f3ec42f54719d
bluedogs2013-01-25d02t11.flac:0b49e39f5a2ed83e818ad2ef5b58d0dc
bluedogs2013-01-25d02t12.flac:a9fe891d612e04b3c1877c38a10de170
bluedogs2013-01-25d02t13.flac:0386d1aa6f81635a9e26e53023be9e52
bluedogs2013-01-25d02t14.flac:6573f28e86dde1c323e2f4235b5e8657
bluedogs2013-01-25d02t15.flac:9ac33c6a3e2dfbbb5b9a057dcb81821e
bluedogs2013-01-25d02t16.flac:d0c36c038a940db8cbf145afee43126f

Shntool

length expanded size cdr WAVE problems fmt ratio filename
5:49.38 61653020 B --- -- ---xx flac 0.5473 bluedogs2013-01-25d01t01.flac
4:31.21 47853836 B --- -- ---xx flac 0.4965 bluedogs2013-01-25d01t02.flac
3:30.16 37081676 B --- -- ---xx flac 0.5235 bluedogs2013-01-25d01t03.flac
3:47.35 40125164 B --- -- ---xx flac 0.5277 bluedogs2013-01-25d01t04.flac
2:37.74 27868892 B --- -- ---xx flac 0.3780 bluedogs2013-01-25d01t05.flac
5:24.23 57207740 B --- -- ---xx flac 0.5287 bluedogs2013-01-25d01t06.flac
4:41.41 49664876 B --- -- ---xx flac 0.5573 bluedogs2013-01-25d01t07.flac
3:35.63 38074220 B --- -- ---xx flac 0.5359 bluedogs2013-01-25d01t08.flac
6:00.04 63513452 B --- -- ---xx flac 0.4576 bluedogs2013-01-25d01t09.flac
5:00.44 53023532 B --- -- ---xx flac 0.4526 bluedogs2013-01-25d01t10.flac
4:08.16 43784876 B --- -- ---xx flac 0.5326 bluedogs2013-01-25d01t11.flac
5:18.42 56194028 B --- -- ---xx flac 0.4815 bluedogs2013-01-25d01t12.flac
4:30.53 47752700 B --- -- ---xx flac 0.5126 bluedogs2013-01-25d01t13.flac
6:01.18 63722780 B --- -- ---xx flac 0.4491 bluedogs2013-01-25d01t14.flac
4:33.52 48279548 B --- -- ---xx flac 0.4897 bluedogs2013-01-25d02t01.flac
6:21.70 67373084 B --- -- ---xx flac 0.5540 bluedogs2013-01-25d02t02.flac
1:21.09 14309612 B --- -- ---xx flac 0.3492 bluedogs2013-01-25d02t03.flac
3:39.16 38669276 B --- -- ---xx flac 0.4410 bluedogs2013-01-25d02t04.flac
1:50.17 19444028 B --- -- ---xx flac 0.3482 bluedogs2013-01-25d02t05.flac
1:40.72 17809388 B --- -- ---xx flac 0.3818 bluedogs2013-01-25d02t06.flac
7:33.27 79972748 B --- -- ---xx flac 0.5057 bluedogs2013-01-25d02t07.flac
0:56.20 9925484 B --- -- ---xx flac 0.4312 bluedogs2013-01-25d02t08.flac
4:29.31 47524556 B --- -- ---xx flac 0.5571 bluedogs2013-01-25d02t09.flac
4:47.17 50666828 B --- -- ---xx flac 0.4906 bluedogs2013-01-25d02t10.flac
2:24.69 25563932 B --- -- ---xx flac 0.3546 bluedogs2013-01-25d02t11.flac
3:08.28 33229100 B --- -- ---xx flac 0.4084 bluedogs2013-01-25d02t12.flac
7:19.47 77550188 B --- -- ---xx flac 0.5138 bluedogs2013-01-25d02t13.flac
0:48.59 8606012 B --- -- ---xx flac 0.3158 bluedogs2013-01-25d02t14.flac
5:34.66 59072876 B --- -- ---xx flac 0.4632 bluedogs2013-01-25d02t15.flac
0:53.66 9504476 B --- -- ---xx flac 0.3729 bluedogs2013-01-25d02t16.flac
122:21.29 1295021928 B 0.4882 (30 files)



Checksumsbluedogs2013-01-25d01t01.flac:b7b85df26c3f078a38fb2a93e57c4a78<br />
bluedogs2013-01-25d01t02.flac:65e0578c8a41483a8be2141a39d3c890<br />
bluedogs2013-01-25d01t03.flac:5ac7415177fcf244cb19f4eebcb1a9e2<br />
bluedogs2013-01-25d01t04.flac:41a2c12db6bda6de90f7cee1adadf135<br />
bluedogs2013-01-25d01t05.flac:0794ee59cec9ef05fe2e9891eab17c4c<br />
bluedogs2013-01-25d01t06.flac:fe29c08894aa271f3c8bf666df538477<br />
bluedogs2013-01-25d01t07.flac:94fc1823acda1fc7f4afd8eb4817e655<br />
bluedogs2013-01-25d01t08.flac:be1c475268824633ae5d672a1c98db2f<br />
bluedogs2013-01-25d01t09.flac:d2827c6bfeb4ef6bc0e1595d97d9938d<br />
bluedogs2013-01-25d01t10.flac:d5f4c13ede4fe6b011a38387fb994c05<br />
bluedogs2013-01-25d01t11.flac:2d6ef9133dd0ea6f4982c929e57eadf1<br />
bluedogs2013-01-25d01t12.flac:5bead64478471459743d97563c83579c<br />
bluedogs2013-01-25d01t13.flac:6d641b5a3fd8b01fd3e3aa26741a8f38<br />
bluedogs2013-01-25d01t14.flac:5fdf393280c755a7d7474122e38ba682<br />
bluedogs2013-01-25d02t01.flac:a7f6c8b8776aed88762e4ed7599789f4<br />
bluedogs2013-01-25d02t02.flac:396bdc649fa73a209b35c9d545ef94bb<br />
bluedogs2013-01-25d02t03.flac:2f5a11ad119c55d3ddfaf9f84394c4b4<br />
bluedogs2013-01-25d02t04.flac:61afbc6b77c4922243e1bf2eabfea2ef<br />
bluedogs2013-01-25d02t05.flac:89a0ba121dcbd08bfec4a5b271994bf0<br />
bluedogs2013-01-25d02t06.flac:523359bafb128fbc1b43cc4588389cab<br />
bluedogs2013-01-25d02t07.flac:101d8d863f2beb61fdcfe12763db4890<br />
bluedogs2013-01-25d02t08.flac:5db171b91e95ec2778f2b41a8e57ea67<br />
bluedogs2013-01-25d02t09.flac:be3ddbdc307f5923c7b4a14671ce19af<br />
bluedogs2013-01-25d02t10.flac:a3fc81390b17c775bf2f3ec42f54719d<br />
bluedogs2013-01-25d02t11.flac:0b49e39f5a2ed83e818ad2ef5b58d0dc<br />
bluedogs2013-01-25d02t12.flac:a9fe891d612e04b3c1877c38a10de170<br />
bluedogs2013-01-25d02t13.flac:0386d1aa6f81635a9e26e53023be9e52<br />
bluedogs2013-01-25d02t14.flac:6573f28e86dde1c323e2f4235b5e8657<br />
bluedogs2013-01-25d02t15.flac:9ac33c6a3e2dfbbb5b9a057dcb81821e<br />
bluedogs2013-01-25d02t16.flac:d0c36c038a940db8cbf145afee43126f<br />
TypeOther
Last seederLast activity 114 days, 08:05:18 ago
Size602.96 MB (632250605 Bytes)
Added2013-01-27 01:37:14
Views0
Hits126
Snatched17 times
Upped byzmanatl
Num files31 files
File List
[Hide list]
filenamesizemd5
bluedogs2013-01-25d02t07.flac38.57 MBN/A
bluedogs2013-01-25d02t13.flac38.00 MBN/A
bluedogs2013-01-25d02t02.flac35.59 MBN/A
bluedogs2013-01-25d01t01.flac32.18 MBN/A
bluedogs2013-01-25d01t06.flac28.84 MBN/A
bluedogs2013-01-25d01t09.flac27.72 MBN/A
bluedogs2013-01-25d01t14.flac27.29 MBN/A
bluedogs2013-01-25d01t07.flac26.40 MBN/A
bluedogs2013-01-25d02t15.flac26.10 MBN/A
bluedogs2013-01-25d01t12.flac25.80 MBN/A
bluedogs2013-01-25d02t09.flac25.25 MBN/A
bluedogs2013-01-25d02t10.flac23.71 MBN/A
bluedogs2013-01-25d01t13.flac23.34 MBN/A
bluedogs2013-01-25d01t10.flac22.89 MBN/A
bluedogs2013-01-25d01t02.flac22.66 MBN/A
bluedogs2013-01-25d02t01.flac22.55 MBN/A
bluedogs2013-01-25d01t11.flac22.24 MBN/A
bluedogs2013-01-25d01t04.flac20.19 MBN/A
bluedogs2013-01-25d01t08.flac19.46 MBN/A
bluedogs2013-01-25d01t03.flac18.51 MBN/A
bluedogs2013-01-25d02t04.flac16.26 MBN/A
bluedogs2013-01-25d02t12.flac12.94 MBN/A
bluedogs2013-01-25d01t05.flac10.05 MBN/A
bluedogs2013-01-25d02t11.flac8.65 MBN/A
bluedogs2013-01-25d02t06.flac6.48 MBN/A
bluedogs2013-01-25d02t05.flac6.46 MBN/A
bluedogs2013-01-25d02t03.flac4.77 MBN/A
bluedogs2013-01-25d02t08.flac4.08 MBN/A
bluedogs2013-01-25d02t16.flac3.38 MBN/A
bluedogs2013-01-25d02t14.flac2.59 MBN/A
bluedogs2013--01-25.textfile.txt5.8 kBN/A
Peers
[See full list]
0 seeders, 1 leecher = 1 peer total

Add a comment

thatbeat 2013-01-27 07:25:31
Wando in the house!
Futch Bros still sound great!
barefeetbob 2013-01-27 11:06:51
Thanks ... skipping brunck for some Sunday Futch!
allblues09 2013-01-27 11:46:11
Awesome, I had no idea this band was still together. thanks!!
gdv 2013-01-28 01:49:23
Thanks! :)

Description says Jan 24 but title and torrent say Jan 25...

...which is correct? :)

(assuming it's probably the 25th)

Add a comment


http://etree.org : http://db.etree.org : http://forums.etree.org : http://wiki.etree.org : Legal : RSS Feed

Contents designed & maintained by the etree.org volunteers
1998-2014, etree.org, except where noted. All Rights Reserved.
Read our terms of service and privacy guidelines