bt.etree.org
etree.org Community Bittorrent Tracker
ArtistPhish
Showphish1996-10-17.akg463
Report this as
non-Trade-Friendly
Email us
Torrentphish1996-10-17akg463.torrent (click to download)
Downloads asphish1996-10-17akg463
Info hasha097e49a3d6de221d21daa292598780705bffbb8
db linkhttp://db.etree.org/shn/123600 | Show | Source
DescriptionPhish - October 17, 1996
Bryce Jordan Center - State College, PA

Recording Info:
AKG 460/CK63 -> Oade M248 -> Dat (48k)

Transfer Info:
Dat (Tascam DA-20) -> Sound Devices 744T -> Samplitude Professional v11.2.1 -> FLAC
(2 Discs Audio / 1 DVD FLAC)

All Transfers and Mastering By Charlie Miller
charliemiller87@earthlink.net
January 27, 2013

Set 1:
d1t01 - Also Sprach Zarathustra ->
d1t02 - Funky Bitch
d1t03 - Sparkle ->
d1t04 - Tweezer ->
d1t05 - Theme From The Bottom
d1t06 - Talk
d1t07 - Punch You In The Eye
d1t08 - Character Zero
d1t09 - A Day In The Life
d1t10 - Tweezer Reprise

Set 2:
d2t01 - Ya Mar
d2t02 - Chalk Dust Torture
d2t03 - Bathtub Gin
d2t04 - Scent Of A Mule
d2t05 - Free
d2t06 - The Lizards
d2t07 - The Star Spangled Banner
d2t08 - David Bowie

Encore:
d2t09 - Golgi Apparatus


SHNTOOL OUTPUT:
length expanded size cdr WAVE problems fmt ratio filename
4:50.67 51313628 B --- -- ---xx flac 0.5446 phish1996-10-17d1t01.flac
5:51.14 61949372 B --- -- ---xx flac 0.5579 phish1996-10-17d1t02.flac
3:48.46 40327436 B --- -- ---xx flac 0.5511 phish1996-10-17d1t03.flac
9:11.05 97208204 B --- -- ---xx flac 0.5444 phish1996-10-17d1t04.flac
8:13.47 87075788 B --- -- ---xx flac 0.5306 phish1996-10-17d1t05.flac
3:48.68 40379180 B --- -- ---xx flac 0.4515 phish1996-10-17d1t06.flac
7:58.44 84422732 B --- -- ---xx flac 0.5332 phish1996-10-17d1t07.flac
5:36.03 59277500 B --- -- ---xx flac 0.5595 phish1996-10-17d1t08.flac
4:29.15 47486924 B --- -- ---xx flac 0.5339 phish1996-10-17d1t09.flac
3:21.23 35510540 B --- -- ---xx flac 0.5505 phish1996-10-17d1t10.flac
7:40.67 81301628 B --- -- ---xx flac 0.5233 phish1996-10-17d2t01.flac
6:52.55 72806204 B --- -- ---xx flac 0.5758 phish1996-10-17d2t02.flac
9:34.17 101293628 B --- -- ---xx flac 0.5344 phish1996-10-17d2t03.flac
12:19.54 130486652 B --- -- ---xx flac 0.4998 phish1996-10-17d2t04.flac
7:48.30 82625804 B --- -- ---xx flac 0.5590 phish1996-10-17d2t05.flac
11:13.57 118851308 B --- -- ---xx flac 0.5135 phish1996-10-17d2t06.flac
2:41.19 28445132 B --- -- ---xx flac 0.5057 phish1996-10-17d2t07.flac
14:38.44 154982732 B --- -- ---xx flac 0.5433 phish1996-10-17d2t08.flac
4:50.55 51285404 B --- -- ---xx flac 0.5471 phish1996-10-17d2t09.flac
134:49.55 1427029796 B 0.5346 (19 files)
Checksumsphish1996-10-17d1t01.flac:5d51a68ade8f75598a95eadd116c9ab6<br />
phish1996-10-17d1t02.flac:40ffb67e23c5ca17a5f77792a66dacdf<br />
phish1996-10-17d1t03.flac:ad94f1996d47fb1312b56beb9379a169<br />
phish1996-10-17d1t04.flac:25fffb9ec33f0d510fab79ad84b42489<br />
phish1996-10-17d1t05.flac:b4cf33328fbe0a3b7eca60b87680c4de<br />
phish1996-10-17d1t06.flac:243e6ee33bb241b228990073393be529<br />
phish1996-10-17d1t07.flac:53ac965ed2f30b607d0b28e98f37d631<br />
phish1996-10-17d1t08.flac:7067504954fb0b2fd16e8d515021cde4<br />
phish1996-10-17d1t09.flac:1d0b620ca973eb4586e30e24b0be10e9<br />
phish1996-10-17d1t10.flac:8be5fcf397d7f71c601635d1d2fb6533<br />
phish1996-10-17d2t01.flac:5e2d92f23275a268caa137e0fc7ef2c2<br />
phish1996-10-17d2t02.flac:81aa60d9fd036ffae1e69214771de440<br />
phish1996-10-17d2t03.flac:068aebb660bc6becca51001a6d83b8a4<br />
phish1996-10-17d2t04.flac:1eee340594863ec4f0235a9515543465<br />
phish1996-10-17d2t05.flac:0f0a17500195cdd2b8166585fd7470e1<br />
phish1996-10-17d2t06.flac:963f29db7dd0e38dcca40c6652b29feb<br />
phish1996-10-17d2t07.flac:29959cbff69ba39b5993f9271e458915<br />
phish1996-10-17d2t08.flac:f216f8b8136c70debf5d740645e6cf91<br />
phish1996-10-17d2t09.flac:52643c51dfd1b2f8a19c285edbc9d913<br />
TypePhish
Last seederLast activity 11:11 ago
Size727.51 MB (762851262 Bytes)
Added2013-01-27 04:45:06
Views5
Hits576
Snatched375 times
Upped bycharlie miller
Num files
[See full list]
22 files
Peers
[See full list]
2 seeders, 0 leechers = 2 peers total

Add a comment

jasonsobel 2013-01-27 06:38:18
I just added this to the etree database:
http://db.etree.org/shn/123600

thanks Charlie!
metawhy 2013-01-27 09:04:52
thank you!!


this looks like JK's rig? John?
kuvap 2013-01-27 09:15:54
Nice, My second show.
geewiz010 2013-01-27 15:19:24
Sweet! Thanks!
BBuckle 2013-01-28 15:53:16
- Thanks to you !!!
asufluffhead 2013-01-31 11:57:34
Charlie into Phish, thanks be to Icculus.

Add a comment


http://etree.org : http://db.etree.org : http://forums.etree.org : http://wiki.etree.org : Legal : RSS Feed

Contents designed & maintained by the etree.org volunteers
1998-2014, etree.org, except where noted. All Rights Reserved.
Read our terms of service and privacy guidelines