bt.etree.org
etree.org Community Bittorrent Tracker
ArtistPhish
Showphish1999-07-04mk41
Report this as
non-Trade-Friendly
Email us
Torrentphish1999-07-04mk41.torrent (click to download)
Downloads asphish1999-07-04mk41
Info hashf97ac718574902704e3a2df89b948c2d5c7368c9
db linkhttp://db.etree.org/shn/123601 | Show | Source
DescriptionPhish - July 4, 1999
Lakewood Amphitheatre - Atlanta, GA

Recording Info:
Schoeps CMC6/MK41 -> Oade M248 -> Dat (Tascam DA-P1/44.1k)

Transfer Info:
Dat (Tascam DA-20) -> Tascam SS-R05 -> Samplitude Professional v11.2.1 -> FLAC
(3 Discs Audio / 1 DVD FLAC)

All Transfers and Mastering By Charlie Miller
charliemiller87@earthlink.net
January 27, 2013

Notes:
-- All disc changes are seamless

Set 1:
d1t01 - My Soul
d1t02 - Ya Mar
d1t03 - Farmhouse
d1t04 - The Oh Kee Pa Ceremony ->
d1t05 - AC/DC Bag
d1t06 - The Wedge
d1t07 - Vultures
d1t08 - I Didn't Know
d1t09 - Fast Enough For You
d2t01 - David Bowie

Set 2:
d2t02 - Ghost ->
d2t03 - Slave To The Traffic Light
d2t04 - The Horse ->
d2t05 - Silent In The Morning ->
d2t06 - What's The Use?
d3t01 - Wilson ->
d3t02 - Mike's Song ->
d3t03 - Sleeping Monkey ->
d3t04 - Weekapaug Groove

Encore:
d3t05 - Carini ->
d3t06 - Meatstick Reprise

Encore 2:
d3t07 - The Star Spangled Banner


SHNTOOL OUTPUT:
length expanded size cdr WAVE problems fmt ratio filename
7:34.57 80219708 B --- -- ---xx flac 0.5632 phish1999-07-04d1t01.flac
13:18.43 140868380 B --- -- ---xx flac 0.5434 phish1999-07-04d1t02.flac
6:23.32 67636508 B --- -- ---xx flac 0.5619 phish1999-07-04d1t03.flac
1:53.53 20057900 B --- -- ---xx flac 0.5211 phish1999-07-04d1t04.flac
9:57.28 105376700 B --- -- ---xx flac 0.5599 phish1999-07-04d1t05.flac
6:38.56 70338956 B --- -- ---xx flac 0.5689 phish1999-07-04d1t06.flac
7:27.21 78900236 B --- -- ---xx flac 0.5748 phish1999-07-04d1t07.flac
5:20.47 56558588 B --- -- ---xx flac 0.5370 phish1999-07-04d1t08.flac
7:34.22 80137388 B --- -- ---xx flac 0.5293 phish1999-07-04d1t09.flac
16:40.38 176489420 B --- -- ---xx flac 0.5632 phish1999-07-04d2t01.flac
14:02.24 148585292 B --- -- ---xx flac 0.5523 phish1999-07-04d2t02.flac
11:17.31 119495756 B --- -- ---xx flac 0.5488 phish1999-07-04d2t03.flac
0:47.22 8342588 B --- -- ---xx flac 0.4665 phish1999-07-04d2t04.flac
5:52.11 62118716 B --- -- ---xx flac 0.5622 phish1999-07-04d2t05.flac
7:45.61 82169516 B --- -- ---xx flac 0.5604 phish1999-07-04d2t06.flac
8:43.36 92341916 B --- -- ---xx flac 0.5664 phish1999-07-04d3t01.flac
9:24.05 99501404 B --- -- ---xx flac 0.5585 phish1999-07-04d3t02.flac
5:21.59 56763212 B --- -- ---xx flac 0.5182 phish1999-07-04d3t03.flac
13:39.46 144579836 B --- -- ---xx flac 0.5584 phish1999-07-04d3t04.flac
3:49.34 40475612 B --- -- ---xx flac 0.6083 phish1999-07-04d3t05.flac
9:51.18 104294780 B --- -- ---xx flac 0.5664 phish1999-07-04d3t06.flac
1:43.49 18284492 B --- -- ---xx flac 0.5353 phish1999-07-04d3t07.flac
175:07.43 1853536904 B 0.5561 (22 files)
Checksumsphish1999-07-04d1t01.flac:9e51261a590790706e391e349b5ddf9c<br />
phish1999-07-04d1t02.flac:f05e5e6bde274f918693e4e2bacfc8f1<br />
phish1999-07-04d1t03.flac:80a648bd7b36a441b27c20db9e29c90d<br />
phish1999-07-04d1t04.flac:9415d9482fbf51fe4224521cd913ebcd<br />
phish1999-07-04d1t05.flac:150b6861331de86675f8cb6c4615c7f6<br />
phish1999-07-04d1t06.flac:3832c4622739d728f264ba66a91ef15b<br />
phish1999-07-04d1t07.flac:deceaf29c054a8c7274be1f85b23fe90<br />
phish1999-07-04d1t08.flac:c0b3031bb19a372e94f7aa09a86d9f4f<br />
phish1999-07-04d1t09.flac:98a19fe8b2fd2543e04d729778eb942a<br />
phish1999-07-04d2t01.flac:39d64725f130460f41bfad9e1ffebfd2<br />
phish1999-07-04d2t02.flac:859da0cbd4ad7325dcff6977a04622b7<br />
phish1999-07-04d2t03.flac:8ece138f9d21035bc2c41d9276b4c614<br />
phish1999-07-04d2t04.flac:78f65a12a15aa63714bfb921c4cb26a0<br />
phish1999-07-04d2t05.flac:6a5c55ef10f9ce02cf347075f9aafe93<br />
phish1999-07-04d2t06.flac:2ceda069d18487d55e728d7eed284a97<br />
phish1999-07-04d3t01.flac:d6c03f2cd1349cc27c139219abdb82a0<br />
phish1999-07-04d3t02.flac:bb1f3971c46939bd59d9a4fb6d79750d<br />
phish1999-07-04d3t03.flac:8430667988ffe4ffab8f88ed10b17dd3<br />
phish1999-07-04d3t04.flac:0d9c76ecea4476da722c638f5139173f<br />
phish1999-07-04d3t05.flac:c06eb57e346afb04415305670d9e9c4c<br />
phish1999-07-04d3t06.flac:a351db0214f6f21c29ed2b7889fb5f75<br />
phish1999-07-04d3t07.flac:e79ae42e0af0e4023f7f9858263a8e1f<br />
TypePhish
Last seederLast activity 29:41 ago
Size983.00 MB (1030745097 Bytes)
Added2013-01-27 06:53:13
Views6
Hits807
Snatched529 times
Upped bycharlie miller
Num files25 files
File List
[Hide list]
filenamesizemd5
phish1999-07-04.ffp1.3 kBN/A
phish1999-07-04.md51.3 kBN/A
phish1999-07-04.txt3.1 kBN/A
phish1999-07-04d1t01.flac43.08 MBN/A
phish1999-07-04d1t02.flac73.00 MBN/A
phish1999-07-04d1t03.flac36.24 MBN/A
phish1999-07-04d1t04.flac9.97 MBN/A
phish1999-07-04d1t05.flac56.26 MBN/A
phish1999-07-04d1t06.flac38.16 MBN/A
phish1999-07-04d1t07.flac43.25 MBN/A
phish1999-07-04d1t08.flac28.97 MBN/A
phish1999-07-04d1t09.flac40.45 MBN/A
phish1999-07-04d2t01.flac94.80 MBN/A
phish1999-07-04d2t02.flac78.26 MBN/A
phish1999-07-04d2t03.flac62.54 MBN/A
phish1999-07-04d2t04.flac3.71 MBN/A
phish1999-07-04d2t05.flac33.31 MBN/A
phish1999-07-04d2t06.flac43.91 MBN/A
phish1999-07-04d3t01.flac49.88 MBN/A
phish1999-07-04d3t02.flac53.00 MBN/A
phish1999-07-04d3t03.flac28.05 MBN/A
phish1999-07-04d3t04.flac77.00 MBN/A
phish1999-07-04d3t05.flac23.48 MBN/A
phish1999-07-04d3t06.flac56.34 MBN/A
phish1999-07-04d3t07.flac9.33 MBN/A
Peers
[See full list]
2 seeders, 0 leechers = 2 peers total

Add a comment

metawhy 2013-01-27 08:18:24
thank you charlie!
zmanatl 2013-01-27 08:24:48
Charlie! Nice work as usual.
jasonsobel 2013-01-27 09:20:18
I just added this to the etree database:
http://db.etree.org/shn/123601

thanks Charlie!
jamas 2013-01-27 11:00:50
Thanks Charlie!
Any chance this was taped by Jim Charna?
geewiz010 2013-01-27 15:18:32
Thanks for this!
kindmeow 2013-09-03 14:57:53
many thanks for the kind music


(~);}

Add a comment


http://etree.org : http://db.etree.org : http://forums.etree.org : http://wiki.etree.org : Legal : RSS Feed

Contents designed & maintained by the etree.org volunteers
1998-2014, etree.org, except where noted. All Rights Reserved.
Read our terms of service and privacy guidelines