bt.etree.org
etree.org Community Bittorrent Tracker
ArtistYarn Music
ShowYarn Smith's Olde Bar Atlanta, Georgia 1/24/2013 (Schoeps CCM4V'S FOB)
Report this as
non-Trade-Friendly
Email us
Torrentyarn2013-01-24.flac16.torrent (click to download)
Downloads asyarn2013-01-24.flac16
Info hash7419eda64697638620763be0aad410d12dc3d24a
DescriptionYarn
Smith's Olde Bar
Atlanta, Georgia
1/24/2013

Source: Schoeps CCM4V'S(din)>Lunatec V2>Benchmark AD2K>
Sound Devices 722 (24/48)
FOB/DFC/KFC/ZFC/AARP 15' From Stage, 7' High
DSP: Sound Devices 722>Sound Forge 9.0>CD Wave>flac(16)
Recorded By: Z-Man
Seeded By: Z-Man

Disc I

01 Sorry For Bein' Me >
02 Down On Your Luck
03 Abilene
04 My Old Shoes
05 ?
06 No Future Together
07 ? >
08 Turn Your Light On
09 50 Ways To Leave Your Lover
10 *Don't Break My Heart Again >
11 Drum Solo >
12 *Don't Break My Heart Again

Disc II

01 Annie >
02 Almost Home
03 Let Me In
04 Tennessee
05 Tonight I'm Just A Moment Away
Encore:
06 Blake Banter
07 ? >
08 ?
09 #Slip Slidin' Away

* With Steven From Delta Saints On HArmonica
# Unplugged Acoustic In The Crowd

Blake Christiana - Guitar And Vocals
Andrew Hendryx - Mandolin And Harmonica
Rod Hohl - Electric Guitar
Rick Bugel - Bass
Robert Bonhomme - Drums

Flac Fingerprint

yarn2013-01-24d01t01.flac:2e5d2241d280b6b6ebfb9287bd81e646
yarn2013-01-24d01t02.flac:9bff592d9396dfd4e383e522987ffac5
yarn2013-01-24d01t03.flac:d04e0c2d273031ee0374c745b1782b46
yarn2013-01-24d01t04.flac:19880231b08873249e0b084506b58af0
yarn2013-01-24d01t05.flac:1db70d96e962464a8ffc38f4e38bd60f
yarn2013-01-24d01t06.flac:888028d53507cfeafe8502c6f5524bad
yarn2013-01-24d01t07.flac:47f123dc2bef5a85fbd583d7263473dd
yarn2013-01-24d01t08.flac:5e66ba8574ca5d98820d912a3042ab3f
yarn2013-01-24d01t09.flac:d84f1b0a9245bf1829cd150a9c86701d
yarn2013-01-24d01t10.flac:6b026ac6d6935302314a1891c70cb9eb
yarn2013-01-24d01t11.flac:1049f0f4760d837554e23b18e7d3c278
yarn2013-01-24d01t12.flac:a5c32a3744389e8707196fa5885ec139
yarn2013-01-24d02t01.flac:c5c45a325b92c7f270a19d7b546f5f3f
yarn2013-01-24d02t02.flac:48a98d85991af3c4e64c805ddc530e3d
yarn2013-01-24d02t03.flac:096ae7016c189683cf3553a174c9a746
yarn2013-01-24d02t04.flac:9765cd666dd1bb952711670c97661074
yarn2013-01-24d02t05.flac:ca23a272f37113ae0cfc93e5cdec16f4
yarn2013-01-24d02t06.flac:5e427edce7fe8b46c1612fffc159c7f8
yarn2013-01-24d02t07.flac:3baff987e35cda63a1eece812404fcd4
yarn2013-01-24d02t08.flac:9978d31dfd980ccec0a0edbfa19cab6c
yarn2013-01-24d02t09.flac:d7e5b0bd881add1ba2424e22515357f9

Shntool

length expanded size cdr WAVE problems fmt ratio filename
4:31.72 47973788 B --- -- ---xx flac 0.4332 yarn2013-01-24d01t01.flac
5:03.58 53585660 B --- -- ---xx flac 0.4897 yarn2013-01-24d01t02.flac
8:35.43 90947180 B --- -- ---xx flac 0.4773 yarn2013-01-24d01t03.flac
4:43.20 49968284 B --- -- ---xx flac 0.4939 yarn2013-01-24d01t04.flac
5:19.02 56276348 B --- -- ---xx flac 0.4774 yarn2013-01-24d01t05.flac
4:00.14 42368972 B --- -- ---xx flac 0.3972 yarn2013-01-24d01t06.flac
5:40.63 60124220 B --- -- ---xx flac 0.4780 yarn2013-01-24d01t07.flac
6:46.07 71634908 B --- -- ---xx flac 0.4413 yarn2013-01-24d01t08.flac
6:01.68 63840380 B --- -- ---xx flac 0.4773 yarn2013-01-24d01t09.flac
9:30.61 100691516 B --- -- ---xx flac 0.4439 yarn2013-01-24d01t10.flac
3:06.57 32944508 B --- -- ---xx flac 0.4340 yarn2013-01-24d01t11.flac
3:25.21 36211436 B --- -- ---xx flac 0.4440 yarn2013-01-24d01t12.flac
6:16.32 66401708 B --- -- ---xx flac 0.4748 yarn2013-01-24d02t01.flac
4:56.66 52369676 B --- -- ---xx flac 0.4326 yarn2013-01-24d02t02.flac
3:39.26 38692796 B --- -- ---xx flac 0.4708 yarn2013-01-24d02t03.flac
6:21.70 67373084 B --- -- ---xx flac 0.4474 yarn2013-01-24d02t04.flac
9:36.39 101698172 B --- -- ---xx flac 0.4981 yarn2013-01-24d02t05.flac
0:29.40 5209724 B --- -- ---xx flac 0.3083 yarn2013-01-24d02t06.flac
3:25.69 36324332 B --- -- ---xx flac 0.4034 yarn2013-01-24d02t07.flac
8:33.70 90657884 B --- -- ---xx flac 0.4858 yarn2013-01-24d02t08.flac
7:14.02 76562348 B --- -- ---xx flac 0.3947 yarn2013-01-24d02t09.flac
117:20.00 1241856924 B 0.4577 (21 files)























Checksumsyarn2013-01-24d01t01.flac:2e5d2241d280b6b6ebfb9287bd81e646
yarn2013-01-24d01t02.flac:9bff592d9396dfd4e383e522987ffac5
yarn2013-01-24d01t03.flac:d04e0c2d273031ee0374c745b1782b46
yarn2013-01-24d01t04.flac:19880231b08873249e0b084506b58af0
yarn2013-01-24d01t05.flac:1db70d96e962464a8ffc38f4e38bd60f
yarn2013-01-24d01t06.flac:888028d53507cfeafe8502c6f5524bad
yarn2013-01-24d01t07.flac:47f123dc2bef5a85fbd583d7263473dd
yarn2013-01-24d01t08.flac:5e66ba8574ca5d98820d912a3042ab3f
yarn2013-01-24d01t09.flac:d84f1b0a9245bf1829cd150a9c86701d
yarn2013-01-24d01t10.flac:6b026ac6d6935302314a1891c70cb9eb
yarn2013-01-24d01t11.flac:1049f0f4760d837554e23b18e7d3c278
yarn2013-01-24d01t12.flac:a5c32a3744389e8707196fa5885ec139
yarn2013-01-24d02t01.flac:c5c45a325b92c7f270a19d7b546f5f3f
yarn2013-01-24d02t02.flac:48a98d85991af3c4e64c805ddc530e3d
yarn2013-01-24d02t03.flac:096ae7016c189683cf3553a174c9a746
yarn2013-01-24d02t04.flac:9765cd666dd1bb952711670c97661074
yarn2013-01-24d02t05.flac:ca23a272f37113ae0cfc93e5cdec16f4
yarn2013-01-24d02t06.flac:5e427edce7fe8b46c1612fffc159c7f8
yarn2013-01-24d02t07.flac:3baff987e35cda63a1eece812404fcd4
yarn2013-01-24d02t08.flac:9978d31dfd980ccec0a0edbfa19cab6c
yarn2013-01-24d02t09.flac:d7e5b0bd881add1ba2424e22515357f9
TypeYarn Music
Last seederLast activity 145 days, 15:13:26 ago
Size542.09 MB (568424921 Bytes)
Added2013-01-27 08:28:05
Views0
Hits154
Snatched23 times
Upped byzmanatl
Num files22 files
File List
[Hide list]
filenamesizemd5
yarn2013-01-24d02t05.flac48.31 MBN/A
yarn2013-01-24d01t10.flac42.62 MBN/A
yarn2013-01-24d02t08.flac42.00 MBN/A
yarn2013-01-24d01t03.flac41.40 MBN/A
yarn2013-01-24d01t08.flac30.15 MBN/A
yarn2013-01-24d02t01.flac30.07 MBN/A
yarn2013-01-24d01t09.flac29.06 MBN/A
yarn2013-01-24d02t09.flac28.82 MBN/A
yarn2013-01-24d02t04.flac28.74 MBN/A
yarn2013-01-24d01t07.flac27.41 MBN/A
yarn2013-01-24d01t05.flac25.62 MBN/A
yarn2013-01-24d01t02.flac25.03 MBN/A
yarn2013-01-24d01t04.flac23.54 MBN/A
yarn2013-01-24d02t02.flac21.61 MBN/A
yarn2013-01-24d01t01.flac19.82 MBN/A
yarn2013-01-24d02t03.flac17.37 MBN/A
yarn2013-01-24d01t06.flac16.05 MBN/A
yarn2013-01-24d01t12.flac15.33 MBN/A
yarn2013-01-24d02t07.flac13.97 MBN/A
yarn2013-01-24d01t11.flac13.64 MBN/A
yarn2013-01-24d02t06.flac1.53 MBN/A
yarn2013--01-24.textfile.txt4.3 kBN/A
Peers
[See full list]
1 seeder, 0 leechers = 1 peer total

Add a comment

zmanatl 2013-01-27 08:29:52
Sorry Folks, can't figure out what happened to my original torrent. It was stuck on 96.8 and I tried everything to get it to finish. Here is the new torrent. It should complete fast if you already have the pre-existing torrent.
simone 2013-01-28 14:33:01
thank you!

Add a comment


http://etree.org : http://db.etree.org : http://forums.etree.org : http://wiki.etree.org : Legal : RSS Feed

Contents designed & maintained by the etree.org volunteers
1998-2014, etree.org, except where noted. All Rights Reserved.
Read our terms of service and privacy guidelines