bt.etree.org
etree.org Community Bittorrent Tracker
ArtistGrateful Dead
Showgd82-09-18.123051.sbd.miller.t-flac16
Report this as
non-Trade-Friendly
Email us
Torrentgd82-09-18.123051.sbd.miller.t-flac16.torrent (click to download)
Downloads asgd82-09-18.123051.sbd.miller.t-flac16
Info hash6adabacbdf3e4ad50831b9ae0d4f01685b3f5a40
db linkhttp://db.etree.org/shn/123051 | Show | Source
DescriptionThis is a tagged version of shnid: 123051

Grateful Dead
September 18, 1982
Boston Garden
Boston, MA

Recording Info:
SBD -> Cassette Master -> Cassette (Dolby B) -> FLAC

Transfer Info:
FLAC -> Adobe Audition v3.0 -> Samplitude Professional v11.2.1 -> FLAC
(2 Discs Audio / 1 DVD FLAC)

All Transfers and Mastering By Charlie Miller
charliemiller87@earthlink.net
December 5, 2012

Notes:
-- I cleaned up some stuff and tried to give the mix some life
-- Thanks to Joe B. Jones for his help with the pitch correction
_______________________________________________________________________________________

--Set 1--
101-d1t01 - Jack Straw ->
102-d1t02 - Sugaree
103-d1t03 - Mama Tried ->
104-d1t04 - Mexicali Blues
105-d1t05 - West L.A. Fadeaway
106-d1t06 - Little Red Rooster
107-d1t07 - Dupree's Diamond Blues
108-d1t08 - Cassidy
109-d1t09 - Far From Me

--Set 2--
201-d2t01 - Samson & Delilah
202-d2t02 - Uncle John's Band ->
203-d2t03 - Playing in the Band ->
204-d2t04 - Drums ->
205-d2t05 - Space ->
206-d2t06 - Throwing Stones ->
207-d2t07 - The Wheel ->
208-d2t08 - Truckin' ->
209-d2t09 - Wharf Rat ->
210-d2t10 - Around & Around ->
211-d2t11 - One More Saturday Night

--Encore--
212-d2t12 - It's All Over Now, Baby Blue
_______________________________________________________________________________________

Tagging notes:
Show information is embedded within the header of each flac file.
It will display on any player capable of directly playing flac files.
If converted to wav during processing, all tags will be stripped,
however audio data will remain unaffected.
If you must transcode to a lossy format, do so directly Flac > Lossy.
Use ffp to validate audio integrity.
Md5 values will change if tagging is altered.
B. Proctor 12-14-12
_______________________________________________________________________________________

SHNTOOL OUTPUT:
length expanded size cdr WAVE problems fmt ratio filename
5:07.14 54187772 B --- -- ---xx flac 0.6679 gd82-09-18d1t01.flac
11:42.09 123854012 B --- -- ---xx flac 0.6477 gd82-09-18d1t02.flac
2:32.13 26843420 B --- -- ---xx flac 0.6602 gd82-09-18d1t03.flac
4:53.20 51732284 B --- -- ---xx flac 0.6625 gd82-09-18d1t04.flac
7:59.17 84535628 B --- -- ---xx flac 0.6548 gd82-09-18d1t05.flac
7:35.29 80330252 B --- -- ---xx flac 0.6560 gd82-09-18d1t06.flac
6:21.53 67333100 B --- -- ---xx flac 0.6506 gd82-09-18d1t07.flac
6:57.19 73603532 B --- -- ---xx flac 0.6679 gd82-09-18d1t08.flac
4:21.74 46214492 B --- -- ---xx flac 0.6943 gd82-09-18d1t09.flac
7:01.36 74349116 B --- -- ---xx flac 0.7038 gd82-09-18d2t01.flac
9:48.43 103824380 B --- -- ---xx flac 0.7097 gd82-09-18d2t02.flac
9:27.43 100119980 B --- -- ---xx flac 0.6958 gd82-09-18d2t03.flac
4:39.57 49349708 B --- -- ---xx flac 0.6670 gd82-09-18d2t04.flac
3:53.39 41192972 B --- -- ---xx flac 0.5448 gd82-09-18d2t05.flac
7:06.48 75259340 B --- -- ---xx flac 0.6711 gd82-09-18d2t06.flac
5:32.44 58668332 B --- -- ---xx flac 0.6541 gd82-09-18d2t07.flac
7:04.10 74817164 B --- -- ---xx flac 0.6933 gd82-09-18d2t08.flac
8:38.48 91488140 B --- -- ---xx flac 0.6536 gd82-09-18d2t09.flac
3:57.27 41870348 B --- -- ---xx flac 0.6836 gd82-09-18d2t10.flac
5:31.57 58522508 B --- -- ---xx flac 0.6757 gd82-09-18d2t11.flac
6:31.27 69035948 B --- -- ---xx flac 0.6893 gd82-09-18d2t12.flac
136:43.52 1447132428 B 0.6695 (21 files)
Checksumsgd82-09-18d1t01.flac:42f0a9899c738570e9a184a46ec5cbfe
gd82-09-18d1t02.flac:ab2cee4e758e5170f937f97b899ea9de
gd82-09-18d1t03.flac:c331900027b326be930f49bab9b5ecd0
gd82-09-18d1t04.flac:62abc2378a2f5fdd297a5e30a476cbad
gd82-09-18d1t05.flac:7f9a935504104988b8cd80fddf97d77a
gd82-09-18d1t06.flac:127ecc5cbe73e113d4420df4b9015bdb
gd82-09-18d1t07.flac:0b24e3b0d15aa7997dc1987e0d0e90df
gd82-09-18d1t08.flac:ed5090eedf5b21c299c23b5bf7be3078
gd82-09-18d1t09.flac:da99304efec87b15bfe841737b9f22b5
gd82-09-18d2t01.flac:621213191739277dddb72fd445c05988
gd82-09-18d2t02.flac:3594efe948d0f846a37050d485cd29e3
gd82-09-18d2t03.flac:4d64af5e52353bf8708df60e0e3b6765
gd82-09-18d2t04.flac:f617cbacbb96c887f003d178c795c07a
gd82-09-18d2t05.flac:c80a3c67397d03ccce98514355d1d73e
gd82-09-18d2t06.flac:e67414977f384e7f32e11bebfa021407
gd82-09-18d2t07.flac:fc788ef53cf3a7a535bae0f118cd1e1e
gd82-09-18d2t08.flac:b0990f46540544e5e4fe9f4eb7742b60
gd82-09-18d2t09.flac:d55b5a9bbe3752b82d19f8906c5fd539
gd82-09-18d2t10.flac:b39dab004eb6b2d6dbfd8d45aac4590b
gd82-09-18d2t11.flac:350621a20050c555a4918733c73eb73c
gd82-09-18d2t12.flac:8c06ecf4dbc41ad51d3f7d4b39e10257
TypeGrateful Dead
Last seederLast activity 16:50 ago
Size923.96 MB (968839828 Bytes)
Added2013-01-27 09:35:48
Views0
Hits516
Snatched334 times
Upped bygermain
Num files
[See full list]
24 files
Seeders
[Hide list]
3 Seeder(s)
ip:portclient
version
ul
bytes
dl
bytes
ratiocompleteul
rate
dl
rate
time
connected
time
left
idle
97.96.101.xxx:63366 μtorrent 3.3.0.0 0 B 0 B N/A 100.00%
N/A N/A 1:46:53 N/A 16:50
65.185.28.xxx:25992 μtorrent 3.4.2.0 0 B 0 B N/A 100.00%
N/A N/A 1 day, 14:08:04 N/A 4:14
206.193.240.xxx:64884 μtorrent 3.4.2.0 0 B 0 B N/A 100.00%
N/A N/A 2 days, 03:23:28 N/A 21:48
0 of 3 firewalled (0%) 100.00%
N/AN/A
Leechers
[Hide list]
0 Leecher(s)

Add a comment

geewiz010 2013-01-28 18:42:06
Thanks for the tags!

Add a comment


http://etree.org : http://db.etree.org : http://forums.etree.org : http://wiki.etree.org : Legal : RSS Feed

Contents designed & maintained by the etree.org volunteers
1998-2014, etree.org, except where noted. All Rights Reserved.
Read our terms of service and privacy guidelines