bt.etree.org
etree.org Community Bittorrent Tracker
ArtistPhish
Showphish1996-07-17.akg414
Report this as
non-Trade-Friendly
Email us
Torrentphish1996-07-17akg414.torrent (click to download)
Downloads asphish1996-07-17akg414
Info hasha0172f6e9fdbd20a94333db2dc869ed077545289
db linkhttp://db.etree.org/shn/123602 | Show | Source
DescriptionPhish - July 17, 1996
Theatre Antique - Vienne, France

Recording Info:
AKG 414 -> Dat (Tascam DA-P1/48k)

Transfer Info:
Dat (Tascam DA-20) -> Sound Devices 744T -> Samplitude Professional v11.2.1 -> FLAC
(1 Disc Audio / 1 Disc FLAC)

All Transfers and Mastering By Charlie Miller
charliemiller87@earthlink.net
January 27, 2013

Notes:
-- This show was a one set opener for Santana

Setlist:
d1t01 - Divided Sky
d1t02 - Sample In A Jar
d1t03 - David Bowie
d1t04 - Ya Mar
d1t05 - Funky Bitch


SHNTOOL OUTPUT:
length expanded size cdr WAVE problems fmt ratio filename
14:35.24 154406492 B --- -- ---xx flac 0.5534 phish1996-07-17d1t01.flac
5:09.44 54611132 B --- -- ---xx flac 0.5920 phish1996-07-17d1t02.flac
12:12.68 129284780 B --- -- ---xx flac 0.5575 phish1996-07-17d1t03.flac
5:17.46 56027036 B --- -- ---xx flac 0.5695 phish1996-07-17d1t04.flac
4:42.28 49810700 B --- -- ---xx flac 0.5774 phish1996-07-17d1t05.flac
41:57.60 444140140 B 0.5641 (5 files)
Checksumsphish1996-07-17d1t01.flac:f47e07322305559a5373374e12674615<br />
phish1996-07-17d1t02.flac:fddc288bdcc967cd6424a87000e4cefb<br />
phish1996-07-17d1t03.flac:6d655d4794aab549f18f5d56af8c827b<br />
phish1996-07-17d1t04.flac:2470669f81c5d228c00be35addfcfb81<br />
phish1996-07-17d1t05.flac:5cfb002d6af57ce5828468d6badc28de<br />
TypePhish
Last seederLast activity 20:27 ago
Size238.91 MB (250519326 Bytes)
Added2013-01-27 09:54:04
Views5
Hits523
Snatched323 times
Upped bycharlie miller
Num files8 files
File List
[Hide list]
filenamesizemd5
phish1996-07-17.ffp300 BN/A
phish1996-07-17.md5305 BN/A
phish1996-07-17.txt1.1 kBN/A
phish1996-07-17d1t01.flac81.48 MBN/A
phish1996-07-17d1t02.flac30.83 MBN/A
phish1996-07-17d1t03.flac68.74 MBN/A
phish1996-07-17d1t04.flac30.43 MBN/A
phish1996-07-17d1t05.flac27.43 MBN/A
Peers
[See full list]
1 seeder, 0 leechers = 1 peer total

Add a comment

jasonsobel 2013-01-27 12:29:50
I just added this to the etree database:
http://db.etree.org/shn/123602

thanks Charlie!
geewiz010 2013-01-27 15:17:13
Thanks for this!
LAStubbe 2013-01-27 16:08:14
This was taped by Don Wright with the use Dr. Stan Lobitz' 414's. Never did get a clone of this DAT.

Thanks Charlie!
BBuckle 2013-01-28 15:55:54
- Thanks for helping to fill my gaps !!!
padelimike 2013-02-04 03:31:11
LAStubbe
"This was taped by Don Wright with the use Dr. Stan Lobitz' 414's."



Any idea which pattern Don Would have used?
I guess I'll find out after the download....
charlie miller 2013-02-13 20:20:23
My bad, the Dats for the 414's say Cardioid pattern but I forgot to include it.
kindmeow 2014-06-21 19:37:28
Thank you for sharing.

Add a comment


http://etree.org : http://db.etree.org : http://forums.etree.org : http://wiki.etree.org : Legal : RSS Feed

Contents designed & maintained by the etree.org volunteers
1998-2014, etree.org, except where noted. All Rights Reserved.
Read our terms of service and privacy guidelines