bt.etree.org
etree.org Community Bittorrent Tracker
ArtistPhish
Showphish1996-07-18.akg414
Report this as
non-Trade-Friendly
Email us
Torrentphish1996-07-18akg414.torrent (click to download)
Downloads asphish1996-07-18akg414
Info hashb66b82b2caa982c8f91e03048b21b43b13100aed
db linkhttp://db.etree.org/shn/123603 | Show | Source
DescriptionPhish - July 18, 1996
Theatre de Verdure - Nice, France

Recording Info:
AKG 414 -> Dat (Tascam DA-P1/48k)

Transfer Info:
Dat (Tascam DA-20) -> Sound Devices 744T -> Samplitude Professional v11.2.1 -> FLAC
(1 Disc Audio / 1 Disc FLAC)

All Transfers and Mastering By Charlie Miller
charliemiller87@earthlink.net
January 27, 2013

Notes:
-- This show was a one set opener for Santana

Setlist:
d1t01 - Julius
d1t02 - Cars Trucks Buses ->
d1t03 - Bouncing Around The Room ->
d1t04 - Stash
d1t05 - Hello My Baby
d1t06 - It's Ice
d1t07 - You Enjoy Myself


SHNTOOL OUTPUT:
length expanded size cdr WAVE problems fmt ratio filename
6:40.65 70712924 B --- -- ---xx flac 0.5865 phish1996-07-18d1t01.flac
2:18.08 24362060 B --- -- ---xx flac 0.5386 phish1996-07-18d1t02.flac
3:14.46 34329836 B --- -- ---xx flac 0.5494 phish1996-07-18d1t03.flac
10:51.48 114949340 B --- -- ---xx flac 0.5595 phish1996-07-18d1t04.flac
1:35.22 16809788 B --- -- ---xx flac 0.5137 phish1996-07-18d1t05.flac
5:40.55 60105404 B --- -- ---xx flac 0.5428 phish1996-07-18d1t06.flac
19:53.07 210461708 B --- -- ---xx flac 0.5281 phish1996-07-18d1t07.flac
50:14.26 531731060 B 0.5457 (7 files)


Checksumsphish1996-07-18d1t01.flac:683e991340596a7fdc0c51880854f8a6<br />
phish1996-07-18d1t02.flac:d517527ebf1049cfb88a5b11ef2b0f5f<br />
phish1996-07-18d1t03.flac:ff41b75ae382a42423fab07587e5d6ab<br />
phish1996-07-18d1t04.flac:01fd1643035ab142b2bea21ec1c2778d<br />
phish1996-07-18d1t05.flac:1588b493fa47014a699d29de1f47d7ca<br />
phish1996-07-18d1t06.flac:85bbc1e29dd1452dab28e0512a9b31e3<br />
phish1996-07-18d1t07.flac:a8310e305c10962adccce6a099b83bfd<br />
TypePhish
Last seederLast activity 14:59 ago
Size276.75 MB (290188710 Bytes)
Added2013-01-27 09:55:48
Views5
Hits569
Snatched357 times
Upped bycharlie miller
Num files10 files
File List
[Hide list]
filenamesizemd5
phish1996-07-18.ffp420 BN/A
phish1996-07-18.md5427 BN/A
phish1996-07-18.txt1.4 kBN/A
phish1996-07-18d1t01.flac39.55 MBN/A
phish1996-07-18d1t02.flac12.51 MBN/A
phish1996-07-18d1t03.flac17.99 MBN/A
phish1996-07-18d1t04.flac61.34 MBN/A
phish1996-07-18d1t05.flac8.24 MBN/A
phish1996-07-18d1t06.flac31.11 MBN/A
phish1996-07-18d1t07.flac106.00 MBN/A
Peers
[See full list]
1 seeder, 0 leechers = 1 peer total

Add a comment

johnnygoff 2013-01-27 11:12:25
cannot wait to give this a listen! Thanx Charlie. Nice is Nice. ;)
jasonsobel 2013-01-27 12:30:01
I just added this to the etree database:
http://db.etree.org/shn/123603

thanks Charlie!
geewiz010 2013-01-27 15:12:32
Wow thanks!
LAStubbe 2013-01-27 16:07:26
This was taped by Don Wright with the use Dr. Stan Lobitz' 414's. Never did get a clone of this DAT.

Thanks Charlie!
BBuckle 2013-01-28 15:56:56
- Thanks !!!
kindmeow 2014-06-21 19:39:43
Thank you for sharing.

Add a comment


http://etree.org : http://db.etree.org : http://forums.etree.org : http://wiki.etree.org : Legal : RSS Feed

Contents designed & maintained by the etree.org volunteers
1998-2014, etree.org, except where noted. All Rights Reserved.
Read our terms of service and privacy guidelines