bt.etree.org
etree.org Community Bittorrent Tracker
ArtistTrey Anastasio
ShowTrey Anastasio Band 2013-01-26 Palace Theater Albany,NY Schoeps mk41/cmc6>Sonosax SX-R4**16bit**
Report this as
non-Trade-Friendly
Email us
Torrenttab2013-01-26_mk41_1644_FLAC.torrent (click to download)
Downloads astab2013-01-26_mk41_1644_FLAC
Info hashcda3208679b09bbb0ba981e365902e87954bf1a0
db linkhttp://db.etree.org/shn/123605 | Show | Source
DescriptionTrey Anastasio Band
2013-01-26
Palace Theater
Albany, NY

Mics were left of center next to the foh row y. DIN

Source: Schoeps MK41>KC5>CMC6>Sonosax SX-R4(24bit/96khz)

Lineage: WAV>USB>Macbook Pro>Wave Editor(tracking,fades,resample(izotope)/dither(mbit+)to 16 bit/44.1k)>XAct(FLAC 8,ffp,fix sbe)

Taped by: Andy Murray
Transferred by: Andy Murray

After Cayman Review ends there is an adjustment in volume as I'd left the pad on the preamps on from a show the night before and forgotten to turn it off before this show. Just a spike in crowd noise. No issue during the music.

Thanks to Bvaz and Ed Guidry for the clamp space

2 Sets

Set One:

01 Crowd/banter
02 First Tube
03 Cayman Review
04 Alaska
05 Tube Top Flop
06 Pigtail
07 Last Tube
08 Small Axe
09 Dark And Down
10 Scabbard
11 Greyhound Rising
12 Shine
13 Money Love And Change

Set Two:

01 Crowd
02 Curlew's Call
03 Gotta Jibboo
04 Alive Again
05 Land Of Nod
06 Valentine
07 Architect
08 Sand
09 Tuesday
10 Clint Eastwood
11 Traveler
12 Push On Till The Day
13 encore break

Encore:
14 O-o-h Child

length expanded size cdr WAVE problems fmt ratio filename
1:05.09 11487212 B --- -- ----- wav 1.0000 tab2013-01-26_mk41_1644_d1t01.wav
6:47.10 71818364 B --- -- ----- wav 1.0000 tab2013-01-26_mk41_1644_d1t02.wav
7:11.54 76155452 B --- -- ----- wav 1.0000 tab2013-01-26_mk41_1644_d1t03.wav
8:00.72 84841388 B --- -- ----- wav 1.0000 tab2013-01-26_mk41_1644_d1t04.wav
3:44.70 39678284 B --- -- ----- wav 1.0000 tab2013-01-26_mk41_1644_d1t05.wav
6:04.24 64266092 B --- -- ----- wav 1.0000 tab2013-01-26_mk41_1644_d1t06.wav
10:00.19 105884732 B --- -- ----- wav 1.0000 tab2013-01-26_mk41_1644_d1t07.wav
3:29.61 37011116 B --- -- ----- wav 1.0000 tab2013-01-26_mk41_1644_d1t08.wav
7:55.56 83921756 B --- -- ----- wav 1.0000 tab2013-01-26_mk41_1644_d1t09.wav
6:26.63 68238620 B --- -- ----- wav 1.0000 tab2013-01-26_mk41_1644_d1t10.wav
5:54.24 62502092 B --- -- ----- wav 1.0000 tab2013-01-26_mk41_1644_d1t11.wav
6:15.37 66237068 B --- -- ----- wav 1.0000 tab2013-01-26_mk41_1644_d1t12.wav
9:46.49 103485692 B --- -- ----- wav 1.0000 tab2013-01-26_mk41_1644_d1t13.wav
1:02.21 10986236 B --- -- ----- wav 1.0000 tab2013-01-26_mk41_1644_d2t01.wav
6:43.60 71230364 B --- -- ----- wav 1.0000 tab2013-01-26_mk41_1644_d2t02.wav
10:13.67 108290828 B --- -- ----- wav 1.0000 tab2013-01-26_mk41_1644_d2t03.wav
7:46.32 82277708 B --- -- ----- wav 1.0000 tab2013-01-26_mk41_1644_d2t04.wav
3:23.22 35860988 B --- -- ----- wav 1.0000 tab2013-01-26_mk41_1644_d2t05.wav
6:10.08 65286860 B --- -- ----- wav 1.0000 tab2013-01-26_mk41_1644_d2t06.wav
6:59.51 74031596 B --- -- ----- wav 1.0000 tab2013-01-26_mk41_1644_d2t07.wav
11:50.43 125345180 B --- -- ----- wav 1.0000 tab2013-01-26_mk41_1644_d2t08.wav
6:15.60 66291164 B --- -- ----- wav 1.0000 tab2013-01-26_mk41_1644_d2t09.wav
4:16.38 45247820 B --- -- ----- wav 1.0000 tab2013-01-26_mk41_1644_d2t10.wav
7:34.47 80196188 B --- -- ----- wav 1.0000 tab2013-01-26_mk41_1644_d2t11.wav
8:10.35 86518364 B --- -- ----- wav 1.0000 tab2013-01-26_mk41_1644_d2t12.wav
2:33.42 27088028 B --- -- ----- wav 1.0000 tab2013-01-26_mk41_1644_d2t13.wav
5:54.54 62572652 B --- -- ----- wav 1.0000 tab2013-01-26_mk41_1644_d2t14.wav
171:39.03 1816751844 B 1.0000 (27 files)

Checksums;flac fingerprints generated by xACT 2.21 on 2013-01-27 10:51:59 -0500

tab2013-01-26_mk41_1644_d1t01.flac:8053b3677cc5d8c23dd1152472b1589a
tab2013-01-26_mk41_1644_d1t02.flac:5b989712d4b45a499050c5a817c74626
tab2013-01-26_mk41_1644_d1t03.flac:9ceb84dc4eb7e5a161533e2cc8d9c4d3
tab2013-01-26_mk41_1644_d1t04.flac:84986359936e9aa76c44c57af1192ed2
tab2013-01-26_mk41_1644_d1t05.flac:16744dcdc570a8244e2a68c2305bdd22
tab2013-01-26_mk41_1644_d1t06.flac:f342205a909b78b01bb8414d8c99e394
tab2013-01-26_mk41_1644_d1t07.flac:392e98c451b1d6c122ba2675ef158e95
tab2013-01-26_mk41_1644_d1t08.flac:9556292ca5918693ec40e28dde258a1e
tab2013-01-26_mk41_1644_d1t09.flac:71037e50ac5f66c5b65236acef78a702
tab2013-01-26_mk41_1644_d1t10.flac:424e9e739aea05303882e5010f52d268
tab2013-01-26_mk41_1644_d1t11.flac:bbf361cdde1c6f371519809d3b444931
tab2013-01-26_mk41_1644_d1t12.flac:01060b155369663f8364f30e1b7e5578
tab2013-01-26_mk41_1644_d1t13.flac:c14a9ec9f073051f63400f312b16ac9d
tab2013-01-26_mk41_1644_d2t01.flac:d464859dbcd09e3e0fbf2861ac39abe2
tab2013-01-26_mk41_1644_d2t02.flac:8ede85e072ab7957e33ce61cba42d3e4
tab2013-01-26_mk41_1644_d2t03.flac:f345c05beaf8b18447404e4a08a8b209
tab2013-01-26_mk41_1644_d2t04.flac:4d3a6401675ec4ae81ed179c68653baf
tab2013-01-26_mk41_1644_d2t05.flac:6aabf2878607bbf8a498540b3410a628
tab2013-01-26_mk41_1644_d2t06.flac:652e529fb4c1eb2004d95aab24bca36d
tab2013-01-26_mk41_1644_d2t07.flac:b5e7c31cfca17f2f397c8b6383691a7a
tab2013-01-26_mk41_1644_d2t08.flac:d4576219414653e522e9b585171dc9cf
tab2013-01-26_mk41_1644_d2t09.flac:1af8e368d36ada0c10df82d92b4b7204
tab2013-01-26_mk41_1644_d2t10.flac:14187979bf16a8c3e102e08f2f57a897
tab2013-01-26_mk41_1644_d2t11.flac:16f5ce128bc1afc06409fe996365afd4
tab2013-01-26_mk41_1644_d2t12.flac:168a9595224d8f4b3e19a880c0854046
tab2013-01-26_mk41_1644_d2t13.flac:d55e3c88f610c7c7761960bbb7143e19
tab2013-01-26_mk41_1644_d2t14.flac:b2662b57a546faaba3630b4478b98c68
TypeTrey Anastasio
Last seederLast activity 3 days, 08:55:28 ago
Size895.11 MB (938589887 Bytes)
Added2013-01-27 11:15:41
Views0
Hits358
Snatched167 times
Upped byandyjah
Num files29 files
File List
[Hide list]
filenamesizemd5
tab2013-01-26_mk41_1644_d1t01.flac4.01 MBN/A
tab2013-01-26_mk41_1644_d1t02.flac37.75 MBN/A
tab2013-01-26_mk41_1644_d1t03.flac37.64 MBN/A
tab2013-01-26_mk41_1644_d1t04.flac42.12 MBN/A
tab2013-01-26_mk41_1644_d1t05.flac17.91 MBN/A
tab2013-01-26_mk41_1644_d1t06.flac32.16 MBN/A
tab2013-01-26_mk41_1644_d1t07.flac51.77 MBN/A
tab2013-01-26_mk41_1644_d1t08.flac17.24 MBN/A
tab2013-01-26_mk41_1644_d1t09.flac40.06 MBN/A
tab2013-01-26_mk41_1644_d1t10.flac31.83 MBN/A
tab2013-01-26_mk41_1644_d1t11.flac27.58 MBN/A
tab2013-01-26_mk41_1644_d1t12.flac33.16 MBN/A
tab2013-01-26_mk41_1644_d1t13.flac52.48 MBN/A
tab2013-01-26_mk41_1644_d2t01.flac4.03 MBN/A
tab2013-01-26_mk41_1644_d2t02.flac34.35 MBN/A
tab2013-01-26_mk41_1644_d2t03.flac52.99 MBN/A
tab2013-01-26_mk41_1644_d2t04.flac40.03 MBN/A
tab2013-01-26_mk41_1644_d2t05.flac17.33 MBN/A
tab2013-01-26_mk41_1644_d2t06.flac33.45 MBN/A
tab2013-01-26_mk41_1644_d2t07.flac35.41 MBN/A
tab2013-01-26_mk41_1644_d2t08.flac63.89 MBN/A
tab2013-01-26_mk41_1644_d2t09.flac34.77 MBN/A
tab2013-01-26_mk41_1644_d2t10.flac22.01 MBN/A
tab2013-01-26_mk41_1644_d2t11.flac41.03 MBN/A
tab2013-01-26_mk41_1644_d2t12.flac46.51 MBN/A
tab2013-01-26_mk41_1644_d2t13.flac13.02 MBN/A
tab2013-01-26_mk41_1644_d2t14.flac30.55 MBN/A
tab2013-01-26_mk41_1644_ffp.txt1.9 kBN/A
tab2013-01-26_mk41_1644_info.txt5.7 kBN/A
Peers
[See full list]
0 seeders, 1 leecher = 1 peer total

Add a comment

SnowRide 2013-01-27 11:42:27
Thanks Andy!
madtaper 2013-01-27 11:45:50
Thanks Andy it was a fun night
andyjah 2013-01-27 12:01:31
Yes it was Dave. Thanks for hooking up the tickets.
oldskool 2013-01-27 12:16:09
Nice to meet you last night Andy. Thanks.
jasonsobel 2013-01-27 12:42:10
I just added this to the etree database:
http://db.etree.org/shn/123605

thanks Andy!
Lemireacle 2013-01-27 14:09:20
Thanks for sharing, Andy. Good to see you, sorry it was too brief! We'll have to connect beforehand next time.
thecat18 2013-01-27 15:55:32
Thanks for sharing.
cryptical17 2013-01-27 16:44:26
The Palace is an awesome concert experience. I wish I was able to see Phish when they played there circ. 1992-93
LAStubbe 2013-01-27 17:02:25
Thanks Andy very nice!
colinw 2013-01-27 18:50:59
thanks Andy, looking forward to hearing this!

Add a comment


http://etree.org : http://db.etree.org : http://forums.etree.org : http://wiki.etree.org : Legal : RSS Feed

Contents designed & maintained by the etree.org volunteers
1998-2014, etree.org, except where noted. All Rights Reserved.
Read our terms of service and privacy guidelines