bt.etree.org
etree.org Community Bittorrent Tracker
ArtistWidespread Panic
ShowWidespread Panic Hard Rock Hotel On The Beach Punta Cana, Dominican Republic 1/27/2013 (Schoeps CCM4V'S)
Report this as
non-Trade-Friendly
Email us
Torrentwsp2013-01-27.flac16.torrent (click to download)
Downloads aswsp2013-01-27.flac16
Info hash8d97d8242485a27a2beebab6907ba8b1048aeb79
db linkhttp://db.etree.org/shn/123634 | Show | Source
DescriptionWidespread Panic
Panic en la Playa II
Hard Rock Hotel
On The Beach
Punta Cana, Dominican Republican
1/27/2013

Source: Schoeps CCM4V'S(din)>Lunatec V2>Benchmark AD2K>
Sound Devices 722 (24/48)
BFOB/DFC/KFC/ZFC/AARP Inside Of Soundboard Area, 6 1/2' High
DSP: Sound Devices 722>Sound Forge 9.0>CD Wave>flac(16)
Recorded By: Z-Man
Seeded By: Z-Man
Ztreamed By Dany and Z-Man, A Team Dirty South Production

Disc I 1st Set

01 Toast From Annabelle/Tuning
02 From The Cradle
03 Airplane >
04 Take-Off Jam >
05 Rebirtha >
06 Better Off Jam >
07 Heaven
08 Blight >
09 Use Me >
10 Don't Wanna Lose You >
11 Pleas >
12 Mr. Soul

Disc II 2nd Set

01 Tuning
02 Tail Dragger
03 Shut Up And Drive >
04 Blackout Blues
05 Diner >
06 Conrad The Caterpillar >
07 Drum Solo >

Disc II 2nd Set Con't

01 Bass And Drum Solo >
02 Jam >
03 Papa Legba >
04 Henry Parsons Died >
05 Contentment Blues >
06 Henry Parsons Died
Encore:
07 Dirty Side Down
08 Protein Drink >
09 Sewing Machine

Flac Fingerprint

wsp2013-01-27d01t01.flac:0d3be94f3434ef6180e5ee899433b105
wsp2013-01-27d01t02.flac:88b0bb617b9e7b719ab6f8496748e67e
wsp2013-01-27d01t03.flac:9205a6f2af23c9aef30c3f7e51c5d2d0
wsp2013-01-27d01t04.flac:6b37bf3fce89cc44de0514cf1a33ef4a
wsp2013-01-27d01t05.flac:e80d0c46b878c7944b28150ab9b7cade
wsp2013-01-27d01t06.flac:788b453aa0de1161cbe942933c88b77f
wsp2013-01-27d01t07.flac:de249d4c0bd6e0d63ecb06a0d291915d
wsp2013-01-27d01t08.flac:776934b4dcc7502b690869ee34e75e0f
wsp2013-01-27d01t09.flac:7ec993dcf261469b8372a0279e2f538b
wsp2013-01-27d01t10.flac:5a0f272fd229b2af758219021b688f61
wsp2013-01-27d01t11.flac:a05481b9b977bc39c225f8751db90276
wsp2013-01-27d01t12.flac:7551f0d7474598b72438bd835345a235
wsp2013-01-27d02t01.flac:cd99b7e3bc4d3b16f77358a7170789f1
wsp2013-01-27d02t02.flac:436eece44372f08a0197952206032086
wsp2013-01-27d02t03.flac:b77dd1647e662687910dd17c6d011a86
wsp2013-01-27d02t04.flac:9399569acf6b6999317f369fed70d474
wsp2013-01-27d02t05.flac:753dbd2402de95c5b3fd83764ee1482d
wsp2013-01-27d02t06.flac:f2517ff78446c7516a4b959b6339aa76
wsp2013-01-27d02t07.flac:be89e0f52534ce35e43a67aef92e5a05
wsp2013-01-27d03t01.flac:32bb89ca4b51fd7c0d0fb7fa060cea6e
wsp2013-01-27d03t02.flac:39393d9f43f10067c0b4f5ba7c9a647f
wsp2013-01-27d03t03.flac:8a5178086942b09719d7ac2e7018e419
wsp2013-01-27d03t04.flac:b672ab27a7d43f3b638b9a570cea0173
wsp2013-01-27d03t05.flac:ba6d3e827e1f4cca49bce6c8fed4d165
wsp2013-01-27d03t06.flac:e11790922fe66580c6740ccb2616ed81
wsp2013-01-27d03t07.flac:ecc2d7a388e1b6a58e89a8caed071c95
wsp2013-01-27d03t08.flac:5fb2079810e6717da4d0299ba832b412
wsp2013-01-27d03t09.flac:b4387ff58a443be28f53ce5dcc94fa3f

Shntool

length expanded size cdr WAVE problems fmt ratio filename
2:13.49 23576492 B --- -- ---xx flac 0.3910 wsp2013-01-27d01t01.flac
4:23.06 46407356 B --- -- ---xx flac 0.4746 wsp2013-01-27d01t02.flac
5:20.14 56480972 B --- -- ---xx flac 0.4618 wsp2013-01-27d01t03.flac
7:37.34 80694812 B --- -- ---xx flac 0.4247 wsp2013-01-27d01t04.flac
9:14.26 97786796 B --- -- ---xx flac 0.4779 wsp2013-01-27d01t05.flac
4:13.36 44713916 B --- -- ---xx flac 0.4692 wsp2013-01-27d01t06.flac
6:16.17 66366428 B --- -- ---xx flac 0.4216 wsp2013-01-27d01t07.flac
8:52.01 93847196 B --- -- ---xx flac 0.4632 wsp2013-01-27d01t08.flac
9:27.31 100091756 B --- -- ---xx flac 0.5003 wsp2013-01-27d01t09.flac
5:45.71 61025036 B --- -- ---xx flac 0.4435 wsp2013-01-27d01t10.flac
8:11.40 86706524 B --- -- ---xx flac 0.4698 wsp2013-01-27d01t11.flac
6:46.28 71684300 B --- -- ---xx flac 0.4910 wsp2013-01-27d01t12.flac
0:35.64 6324572 B --- -- ---xx flac 0.3489 wsp2013-01-27d02t01.flac
6:48.49 72086492 B --- -- ---xx flac 0.4465 wsp2013-01-27d02t02.flac
7:35.67 80419628 B --- -- ---xx flac 0.4652 wsp2013-01-27d02t03.flac
8:01.57 84982508 B --- -- ---xx flac 0.4543 wsp2013-01-27d02t04.flac
21:33.15 228120524 B --- -- ---xx flac 0.4441 wsp2013-01-27d02t05.flac
8:35.05 90857804 B --- -- ---xx flac 0.4776 wsp2013-01-27d02t06.flac
9:29.11 100397516 B --- -- ---xx flac 0.3841 wsp2013-01-27d02t07.flac
3:54.58 41414060 B --- -- ---xx flac 0.4445 wsp2013-01-27d03t01.flac
1:48.39 19142972 B --- -- ---xx flac 0.4507 wsp2013-01-27d03t02.flac
6:53.34 72933212 B --- -- ---xx flac 0.4844 wsp2013-01-27d03t03.flac
7:18.72 77432588 B --- -- ---xx flac 0.4721 wsp2013-01-27d03t04.flac
4:50.08 51174860 B --- -- ---xx flac 0.4848 wsp2013-01-27d03t05.flac
5:31.44 58491932 B --- -- ---xx flac 0.5120 wsp2013-01-27d03t06.flac
6:07.03 64745900 B --- -- ---xx flac 0.4508 wsp2013-01-27d03t07.flac
4:19.41 45784076 B --- -- ---xx flac 0.4930 wsp2013-01-27d03t08.flac
8:48.46 93247436 B --- -- ---xx flac 0.5159 wsp2013-01-27d03t09.flac
190:33.66 2016937664 B 0.4616 (28 files)

Checksumswsp2013-01-27d01t01.flac:0d3be94f3434ef6180e5ee899433b105
wsp2013-01-27d01t02.flac:88b0bb617b9e7b719ab6f8496748e67e
wsp2013-01-27d01t03.flac:9205a6f2af23c9aef30c3f7e51c5d2d0
wsp2013-01-27d01t04.flac:6b37bf3fce89cc44de0514cf1a33ef4a
wsp2013-01-27d01t05.flac:e80d0c46b878c7944b28150ab9b7cade
wsp2013-01-27d01t06.flac:788b453aa0de1161cbe942933c88b77f
wsp2013-01-27d01t07.flac:de249d4c0bd6e0d63ecb06a0d291915d
wsp2013-01-27d01t08.flac:776934b4dcc7502b690869ee34e75e0f
wsp2013-01-27d01t09.flac:7ec993dcf261469b8372a0279e2f538b
wsp2013-01-27d01t10.flac:5a0f272fd229b2af758219021b688f61
wsp2013-01-27d01t11.flac:a05481b9b977bc39c225f8751db90276
wsp2013-01-27d01t12.flac:7551f0d7474598b72438bd835345a235
wsp2013-01-27d02t01.flac:cd99b7e3bc4d3b16f77358a7170789f1
wsp2013-01-27d02t02.flac:436eece44372f08a0197952206032086
wsp2013-01-27d02t03.flac:b77dd1647e662687910dd17c6d011a86
wsp2013-01-27d02t04.flac:9399569acf6b6999317f369fed70d474
wsp2013-01-27d02t05.flac:753dbd2402de95c5b3fd83764ee1482d
wsp2013-01-27d02t06.flac:f2517ff78446c7516a4b959b6339aa76
wsp2013-01-27d02t07.flac:be89e0f52534ce35e43a67aef92e5a05
wsp2013-01-27d03t01.flac:32bb89ca4b51fd7c0d0fb7fa060cea6e
wsp2013-01-27d03t02.flac:39393d9f43f10067c0b4f5ba7c9a647f
wsp2013-01-27d03t03.flac:8a5178086942b09719d7ac2e7018e419
wsp2013-01-27d03t04.flac:b672ab27a7d43f3b638b9a570cea0173
wsp2013-01-27d03t05.flac:ba6d3e827e1f4cca49bce6c8fed4d165
wsp2013-01-27d03t06.flac:e11790922fe66580c6740ccb2616ed81
wsp2013-01-27d03t07.flac:ecc2d7a388e1b6a58e89a8caed071c95
wsp2013-01-27d03t08.flac:5fb2079810e6717da4d0299ba832b412
wsp2013-01-27d03t09.flac:b4387ff58a443be28f53ce5dcc94fa3f
TypeWidespread Panic
Last seederLast activity 1:31:13 ago
Size887.92 MB (931048115 Bytes)
Added2013-01-28 01:10:36
Views0
Hits1201
Snatched628 times
Upped byzmanatl
Num files29 files
File List
[Hide list]
filenamesizemd5
wsp2013-01-27d02t05.flac96.61 MBN/A
wsp2013-01-27d01t09.flac47.76 MBN/A
wsp2013-01-27d03t09.flac45.87 MBN/A
wsp2013-01-27d01t05.flac44.57 MBN/A
wsp2013-01-27d01t08.flac41.46 MBN/A
wsp2013-01-27d02t06.flac41.38 MBN/A
wsp2013-01-27d01t11.flac38.84 MBN/A
wsp2013-01-27d02t04.flac36.82 MBN/A
wsp2013-01-27d02t07.flac36.77 MBN/A
wsp2013-01-27d02t03.flac35.68 MBN/A
wsp2013-01-27d03t04.flac34.86 MBN/A
wsp2013-01-27d03t03.flac33.69 MBN/A
wsp2013-01-27d01t12.flac33.56 MBN/A
wsp2013-01-27d01t04.flac32.68 MBN/A
wsp2013-01-27d02t02.flac30.69 MBN/A
wsp2013-01-27d03t06.flac28.56 MBN/A
wsp2013-01-27d03t07.flac27.84 MBN/A
wsp2013-01-27d01t07.flac26.68 MBN/A
wsp2013-01-27d01t10.flac25.81 MBN/A
wsp2013-01-27d01t03.flac24.87 MBN/A
wsp2013-01-27d03t05.flac23.66 MBN/A
wsp2013-01-27d03t08.flac21.53 MBN/A
wsp2013-01-27d01t02.flac21.01 MBN/A
wsp2013-01-27d01t06.flac20.01 MBN/A
wsp2013-01-27d03t01.flac17.56 MBN/A
wsp2013-01-27d01t01.flac8.79 MBN/A
wsp2013-01-27d03t02.flac8.23 MBN/A
wsp2013-01-27d02t01.flac2.10 MBN/A
wsp2013--01-27.textfile.txt5.3 kBN/A
Peers
[See full list]
1 seeder, 0 leechers = 1 peer total

Add a comment

<< Prev      Next >>
1 - 20 | 21 - 21

Vallely 2013-01-30 22:41:31
Thanks

1 - 20 | 21 - 21
<< Prev      Next >>

Add a comment


http://etree.org : http://db.etree.org : http://forums.etree.org : http://wiki.etree.org : Legal : RSS Feed

Contents designed & maintained by the etree.org volunteers
1998-2014, etree.org, except where noted. All Rights Reserved.
Read our terms of service and privacy guidelines