bt.etree.org
etree.org Community Bittorrent Tracker
ArtistGrateful Dead
Showgd1995-04-04.aud.matera.123593.sbeok.flac16.torrent
Report this as
non-Trade-Friendly
Email us
Torrentgd1995-04-04.aud.matera.123593.sbeok.flac16.torrent (click to download)
Downloads asgd1995-04-04.aud.matera.123593.sbeok.flac16
Info hash06d3826999b463e6edb81d383ad467a34d2977b8
db linkhttp://db.etree.org/shn/123593 | Show | Source
DescriptionGrateful Dead
04/04/95
Birmingham Coliseum
Birmingham, AL
shows_key=2297


Source: AUD(Schoeps MK4s)>DAT>CDR>WAV>SHNv3
(Shn id: 10545)

---------------------------------------------------------------------------
gd1995-04-04.aud.matera.123593.sbeok.flac16
EQ by Phil Matera, Cool Edit 2000; 1-25-2013
Shn > Wav > Cool Edit 2000 > Wav > Flac
---------------------------------------------------------------------------


Disc 1 - Set 1
01 Feel Like A Stranger
02 Sugaree
03 New Minglewood Blues
04 Ramble On Rose
05 Black Throated Wind
06 Don't Ease Me In

Disc 2 - Set 2
01 Victim Or The Crime >
02 Iko Iko
03 Corrina >
04 Terrapin Station >
05 Drums >
06 Space >

Disc 3 - Set 2 (cont'd)
01 Easy Answers >
02 Stella Blue >
03 Around And Around
Encore
04 The Mighty Quinn (Quinn The Eskimo)


+++++++++++++++++++++++++++++++++++++++++++++++++++++++++++++++++++++++++
These are the Original Comments from original source
Above average audience recording with lots of talking.
Seems like it should be trackable to 2 discs, but the long Iko Iko
"messes" things up.

Thanks to Paul B. for the seeds.
DAE(EAC0.9 beta4)>tracking(cdwav)>SHN(shorten 3.4)>FTP via Chris
L./candyman FTP. Another installment of TMNSP - July 2002.

+++++++++++++++++++++++++++++++++++++++++++++++++++++++++++++++++++++++++
Phil's Comments
This a great show, especially the second set and especially if
you like a lot of the darker and spacier Grateful Dead.

I do not feel that this is an "above average" recording (with all due
respect), but it is a good one.

I brightened this up for a friend of a friend and I found it to be
a real nice show to listen to. - Phil Matera 1-25-2013

+++++++++++++++++++++++++++++++++++++++++++++++++++++++++++++++++++++++++

length expanded size cdr WAVE problems fmt ratio filename
9:52.46 104537036 B --- -- ---xx flac 0.6005 gd95-04-04d1t01.flac
14:44.26 155998796 B --- -- ---xx flac 0.6116 gd95-04-04d1t02.flac
7:18.05 77275004 B --- -- ---xx flac 0.6100 gd95-04-04d1t03.flac
9:50.57 104210108 B --- -- ---xx flac 0.5752 gd95-04-04d1t04.flac
6:22.72 67554188 B --- -- ---xx flac 0.6084 gd95-04-04d1t05.flac
3:32.46 37505036 B --- -- ---xx flac 0.6054 gd95-04-04d1t06.flac
9:03.49 95900492 B --- -- ---xx flac 0.6592 gd95-04-04d2t01.flac
16:59.46 179859836 B --- -- ---xx flac 0.6676 gd95-04-04d2t02.flac
8:05.22 85605788 B --- -- ---xx flac 0.6840 gd95-04-04d2t03.flac
14:25.27 152649548 B --- -- ---xx flac 0.6756 gd95-04-04d2t04.flac
7:02.63 74589020 B --- -- ---xx flac 0.6245 gd95-04-04d2t05.flac
17:29.19 185088332 B --- -- ---xx flac 0.5524 gd95-04-04d2t06.flac
8:19.25 88082444 B --- -- ---xx flac 0.6661 gd95-04-04d3t01.flac
7:38.05 80803004 B --- -- ---xx flac 0.5962 gd95-04-04d3t02.flac
8:10.44 86539532 B --- -- ---xx flac 0.6485 gd95-04-04d3t03.flac
4:49.44 51083132 B --- -- ---xx flac 0.6586 gd95-04-04d3t04.flac
153:44.71 1627281296 B 0.6265 (16 files)
Checksumsgd95-04-04d1t01.flac:a3ee1ab2017b1bd3b728464160fe3035
gd95-04-04d1t02.flac:71db063fa3e0f4afd433c1cea7190216
gd95-04-04d1t03.flac:4bd821138a36e2e4a6fc69a93288ddc4
gd95-04-04d1t04.flac:b85a9f1e737a76c4a18aa5c7a168b211
gd95-04-04d1t05.flac:6e87cd90e9844759e9d50d8977f75851
gd95-04-04d1t06.flac:ece359bd6d6a868480c28d31814c44b3
gd95-04-04d2t01.flac:9e63712a5e9dd8f9c77d99c1c5f12ded
gd95-04-04d2t02.flac:8b5a686d9d405e57365fe1094d8e8168
gd95-04-04d2t03.flac:9fe2fcfc8085159eb2cff4d723918fdc
gd95-04-04d2t04.flac:a7079b965d63cccdf5a9432fc266e731
gd95-04-04d2t05.flac:ea6603b45cdfebd71f85c0bb1f3bee57
gd95-04-04d2t06.flac:4db295967358f1b63f35bb47d7d34c45
gd95-04-04d3t01.flac:bb57c8e8e2f658a90495f802c9082f93
gd95-04-04d3t02.flac:13985d39fdc9b3013c5f36358ff6cef3
gd95-04-04d3t03.flac:2ebc74cace7cf599a3cdef8be9b2db2f
gd95-04-04d3t04.flac:851e45458145e209002c079eba83d2b7
TypeGrateful Dead
Last seederLast activity 23:58 ago
Size972.26 MB (1019485467 Bytes)
Added2013-01-28 01:29:10
Views0
Hits389
Snatched160 times
Upped byphilmatera
Num files
[See full list]
19 files
Peers
[See full list]
0 seeders, 1 leecher = 1 peer total

No comments yet

Add a comment


http://etree.org : http://db.etree.org : http://forums.etree.org : http://wiki.etree.org : Legal : RSS Feed

Contents designed & maintained by the etree.org volunteers
1998-2014, etree.org, except where noted. All Rights Reserved.
Read our terms of service and privacy guidelines