bt.etree.org
etree.org Community Bittorrent Tracker
ArtistGrateful Dead
Showgd82-09-20.88857.sbd.miller.t-flac16
Report this as
non-Trade-Friendly
Email us
Torrentgd82-09-20.88857.sbd.miller.sbeok.t-flac16.torrent (click to download)
Downloads asgd82-09-20.88857.sbd.miller.sbeok.t-flac16
Info hash332537ce7dcc1689258321a9ac8151680ee2c5fb
db linkhttp://db.etree.org/shn/88857 | Show | Source
DescriptionThis is a tagged version of 88857

Grateful Dead
September 20, 1982
Madison Square Garden
New York, NY

Recording Info:
SBD -> Cassette Master -> Cassette -> CD

Transfer Info:
CD -> Samplitude Professional v9.12 -> Cool Edit Pro v.20 -> FLAC
(3 Discs Audio / 2 Discs FLAC)

All Transfers and Mastering By Charlie Miller
charliemiller87@earthlink.net
November 27, 2007

Patch Info:
(FOB/18th Row) Sennheiser 421 -> Cassette Master -> CD (shnid=3151) supplies:
Fire On The Mountain (3:39 - 4:18)

Notes:
-- Set 2 is seamless
-- Thanks to Joe B. Jones for his help with the pitch correction
-- Patch source recorded by Jim Wise
____________________________________________________________________________

--Set 1--
101-d1t01 - Shakedown Street ->
102-d1t02 - New Minglewood Blues
103-d1t03 - Candyman ->
104-d1t04 - El Paso
105-d1t05 - Dupree's Diamond Blues
106-d1t06 - It's All Over Now
107-d1t07 - Never Trust a Woman
108-d1t08 - Row Jimmy
109-d1t09 - Throwing Stones ->
110-d1t10 - Day Job

--Set 2--
201-d2t01 - Scarlet Begonias ->
202-d2t02 - Fire on the Mountain
203-d2t03 - Man Smart (Women Are Smarter)
204-d2t04 - Terrapin Station ->
205-d2t05 - Drums ->
206-d3t01 - Space ->
207-d3t02 - Spanish Jam ->
208-d3t03 - Truckin' ->
209-d3t04 - The Other One ->
210-d3t05 - Stella Blue ->
211-d3t06 - Sugar Magnolia

--Encore--
212-d3t07 - Touch Of Grey
____________________________________________________________________________

Tagging notes:
Show information is embedded within the header of each flac file.
It will display on any player capable of directly playing flac files.
If converted to wav during processing, all tags will be stripped,
however audio data will remain unaffected.
If you must transcode to a lossy format, do so directly Flac > Lossy.
Use ffp to validate audio integrity.
Md5 values will change if tagging is altered.
B. Proctor 3-31-11
____________________________________________________________________________

SHNTOOL OUTPUT:
length expanded size cdr WAVE problems filename
12:08.27 128482748 --- -- ----- gd82-09-20d1t01.wav
7:31.18 79598780 --- -- ----- gd82-09-20d1t02.wav
6:06.11 64588316 --- -- ----- gd82-09-20d1t03.wav
5:14.00 55389644 --- -- ----- gd82-09-20d1t04.wav
6:06.08 64581260 --- -- ----- gd82-09-20d1t05.wav
8:04.74 85551692 --- -- ----- gd82-09-20d1t06.wav
7:01.64 74414972 --- -- ----- gd82-09-20d1t07.wav
10:41.41 113168876 --- -- ----- gd82-09-20d1t08.wav
5:53.74 62443292 --- -- ----- gd82-09-20d1t09.wav
5:15.52 55688348 --- -- ----- gd82-09-20d1t10.wav
12:07.41 128339276 --- -- ----- gd82-09-20d2t01.wav
9:29.22 100423388 --- -- ----- gd82-09-20d2t02.wav
6:47.14 71827772 --- -- ----- gd82-09-20d2t03.wav
11:40.66 123635276 --- -- ----- gd82-09-20d2t04.wav
8:16.23 87548540 --- -- ----- gd82-09-20d2t05.wav
5:54.26 62506796 --- -- ----- gd82-09-20d3t01.wav
3:13.66 34200476 --- -- ----- gd82-09-20d3t02.wav
5:54.07 62462108 --- -- ----- gd82-09-20d3t03.wav
5:52.70 62257484 --- -- ----- gd82-09-20d3t04.wav
7:57.00 84142844 --- -- ----- gd82-09-20d3t05.wav
8:39.29 91619852 --- -- ----- gd82-09-20d3t06.wav
6:43.63 71237420 --- -- ----- gd82-09-20d3t07.wav
166:40.46 1764109160 B (totals for 22 files)
Checksumsgd82-09-20d1t01.flac:95d458030d0f444647ec7e2f0eb9b3bc
gd82-09-20d1t02.flac:48db37dff9387cfc4c57d0b8f17d891a
gd82-09-20d1t03.flac:5411c0427d21d310ccc141c1b54b62c5
gd82-09-20d1t04.flac:93638a6866409abacac8dc4f4b6c281f
gd82-09-20d1t05.flac:63877c3d99664c0ee0633d369d3da7b0
gd82-09-20d1t06.flac:bb748f4c26372c7049cc948d1ab93245
gd82-09-20d1t07.flac:ffc59b71c1a1f4aeb9c5cfe4a891430d
gd82-09-20d1t08.flac:36ab561accd8f9c856da9377535984e5
gd82-09-20d1t09.flac:c363641fecdac604cb0b2d6ca283cc47
gd82-09-20d1t10.flac:5950f6bfb50e27ab076e91282b269cb6
gd82-09-20d2t01.flac:f99087a45ce74452f6675f2ee7617932
gd82-09-20d2t02.flac:49f7ebb59e3d8956a4d3c16cf8fd0756
gd82-09-20d2t03.flac:f5c3fffd8213239bf26cbc9b9452afff
gd82-09-20d2t04.flac:934be002d4498f3b98990442cd73f946
gd82-09-20d2t05.flac:f192d590264f84f8613b8215344dcbbd
gd82-09-20d3t01.flac:cb2f2bc77b477e9eae403229f2daf57f
gd82-09-20d3t02.flac:dd07a63c86db9a1eab57aea60163ebe4
gd82-09-20d3t03.flac:cc0bbc3425a806d3bfddb1f89e9d0e35
gd82-09-20d3t04.flac:a7900251194cfcdbc8ac63fb5fb8d6b2
gd82-09-20d3t05.flac:681689fcceca80cde8ce999be487b768
gd82-09-20d3t06.flac:3138a429a54247fd3d49912bf7ce87e5
gd82-09-20d3t07.flac:a3b9dff02689596596786493213c59f5
TypeGrateful Dead
Last seederLast activity 35:43 ago
Size1003.57 MB (1052316261 Bytes)
Added2013-01-28 09:18:01
Views0
Hits506
Snatched307 times
Upped bygermain
Num files
[See full list]
25 files
Seeders
[Hide list]
4 Seeder(s)
ip:portclient
version
ul
bytes
dl
bytes
ratiocompleteul
rate
dl
rate
time
connected
time
left
idle
71.193.155.xxx:63148 μtorrent 3.3.2.0 655.27 MB 0 B 100.00%
0 B/s N/A 5 days, 22:25:54 N/A 16:02
97.96.108.xxx:63366 μtorrent 3.3.0.0 0 B 0 B N/A 100.00%
N/A N/A 5 days, 22:29:37 N/A 4:49
67.164.138.xxx:53846 μtorrent 3.1.3.0 0 B 0 B N/A 100.00%
N/A N/A 9:06:01 N/A 35:43
37.113.10.xxx:35691 μtorrent 2.2.1.0 0 B 0 B N/A 100.00%
N/A N/A 52:39 N/A 22:32
0 of 4 firewalled (0%) 100.00%
N/AN/A
Leechers
[Hide list]
0 Leecher(s)

Add a comment

geewiz010 2013-01-28 18:40:13
Thanks for the tagged version!

Add a comment


http://etree.org : http://db.etree.org : http://forums.etree.org : http://wiki.etree.org : Legal : RSS Feed

Contents designed & maintained by the etree.org volunteers
1998-2014, etree.org, except where noted. All Rights Reserved.
Read our terms of service and privacy guidelines