bt.etree.org
etree.org Community Bittorrent Tracker
ArtistGrateful Dead
Showgd82-09-20.97897.mtx.seamons.t-flac16
Report this as
non-Trade-Friendly
Email us
Torrentgd82-09-20.97897.mtx.seamons.sbeok.t-flac16.torrent (click to download)
Downloads asgd82-09-20.97897.mtx.seamons.sbeok.t-flac16
Info hashe53d7c2646a245785eea75229dd3769950b898f8
db linkhttp://db.etree.org/shn/97897 | Show | Source
DescriptionThis is a tagged version of shnid: 97897

Grateful Dead
September 20, 1982
Madison Square Garden
New York, NY

Jerry Garcia - Lead Guitar, Vocals
Mickey Hart - Drums
Bill Kreutzmann - Drums
Phil Lesh - Electric Bass, Vocals
Brent Mydland - Keyboards, Vocals
Bob Weir - Rhythm Guitar, Vocals

*Matrix
-----------------------------------------------------------------
SBD (shnid=88857):
Recording Info:
SBD -> Cassette Master -> Cassette -> CD

Transfer Info:
CD -> Samplitude Professional v9.12 -> Cool Edit Pro v.20 -> FLAC
(3 Discs Audio / 2 Discs FLAC)

All Transfers and Mastering By Charlie Miller
charliemiller87@earthlink.net
November 27, 2007

Patch Info:(shnid=3151) supplies:
(FOB/18th Row)
Sennheiser 421 -> Cassette Master -> CD
Fire On The Mountain (3:39 - 4:18)

[Fire patch re-patched]
[30 second cut in early portion of The Other One]
[8 second cut toward end of Stella Blue]

Notes:
-- Set 2 is seamless
-- Thanks to Joe B. Jones for his help with the pitch correction
-- Patch source recorded by Jim Wise

-----------------------------------------------------------------
AUD (shnid=3151):

Jim Wise (18th row - Center)
Sennheiser 421's > Sony TC-D5 > Master Cassette >
Playback on Nak Dragon > Sony R700 DAT deck (sbm-on)
- used only as A>D converter (44.1khz) > ZA2 > CDR (x1) >
EAC(tracked with Addawav & CDWav) > SHN
[8 second cut in Drums]
[Touch of Grey patched with Mark Cohen's source via David Minches]

-----------------------------------------------------------------
Thank you to Charlie Miller for the SBD transfer,
and to Jim Wise and Mark Cohen for recording the show.

Matrix by Hunter Seamons using Final Cut Pro
(SHN & FLAC>AIFF>Final Cut>WAV>FLAC)
March 14, 2009
_______________________________________________________________________

--Set 1--
101-d1t01 - Shakedown Street ->
102-d1t02 - New Minglewood Blues
103-d1t03 - Candyman ->
104-d1t04 - El Paso
105-d1t05 - Dupree's Diamond Blues
106-d1t06 - It's All Over Now
107-d1t07 - Never Trust a Woman
108-d1t08 - Row Jimmy
109-d1t09 - Throwing Stones ->
110-d1t10 - Keep Your Day Job

--Set 2--
201-d2t01 - Tuning
202-d2t02 - Scarlet Begonias ->
203-d2t03 - Fire on the Mountain
204-d2t04 - Man Smart (Women Are Smarter)
205-d2t05 - Terrapin Station ->
206-d2t06 - Drums ->
207-d3t01 - Close Encounters of the Third Kind ->
208-d3t02 - Space ->
209-d3t03 - Spanish Jam ->
210-d3t04 - Truckin' ->
211-d3t05 - The Other One ->
212-d3t06 - Stella Blue ->
213-d3t07 - Sugar Magnolia

--Encore--
214-d3t08 - Touch Of Grey
_______________________________________________________________________

Notes:
Speed of Women increased 1%.
_______________________________________________________________________

Tagging notes:
Show information is embedded within the header of each flac file.
It will display on any player capable of directly playing flac files.
If converted to wav during processing, all tags will be stripped,
however audio data will remain unaffected.
If you must transcode to a lossy format, do so directly Flac > Lossy.
Use ffp to validate audio integrity.
Md5 values will change if tagging is altered.
B. Proctor 3-31-11
_______________________________________________________________________

length expanded size cdr WAVE problems fmt ratio filename
12:43.59 134732012 B --- -- ---xx gd82-09-20d1t01.flac
7:40.35 81226364 B --- -- ---xx gd82-09-20d1t02.flac
6:06.10 64585964 B --- -- ---xx gd82-09-20d1t03.flac
5:17.16 55956476 B --- -- ---xx gd82-09-20d1t04.flac
6:06.10 64585964 B --- -- ---xx gd82-09-20d1t05.flac
8:05.49 85669292 B --- -- ---xx gd82-09-20d1t06.flac
7:04.57 74927708 B --- -- ---xx gd82-09-20d1t07.flac
10:27.24 110659292 B --- -- ---xx gd82-09-20d1t08.flac
5:53.72 62438588 B --- -- ---xx gd82-09-20d1t09.flac
5:25.52 57452348 B --- -- ---xx gd82-09-20d1t10.flac
2:47.42 29557628 B --- -- ---xx gd82-09-20d2t01.flac
12:05.70 128054684 B --- -- ---xx gd82-09-20d2t02.flac
9:52.42 104527628 B --- -- ---xx gd82-09-20d2t03.flac
6:53.71 73020236 B --- -- ---xx gd82-09-20d2t04.flac
11:41.60 123797564 B --- -- ---xx gd82-09-20d2t05.flac
6:25.44 68017532 B --- -- ---xx gd82-09-20d2t06.flac
1:50.66 19559276 B --- -- ---xx gd82-09-20d3t01.flac
5:54.24 62502092 B --- -- ---xx gd82-09-20d3t02.flac
3:13.67 34202828 B --- -- ---xx gd82-09-20d3t03.flac
5:54.04 62455052 B --- -- ---xx gd82-09-20d3t04.flac
6:24.69 67899932 B --- -- ---xx gd82-09-20d3t05.flac
7:50.73 83079740 B --- -- ---xx gd82-09-20d3t06.flac
8:58.42 95002028 B --- -- ---xx gd82-09-20d3t07.flac
6:49.35 72229964 B --- -- ---xx gd82-09-20d3t08.fla
171:35.43 1816140192 B 0.6102 (24 files)
Checksumsgd82-09-20d1t01.flac:cbae49f3aca83d387d2f739d47551c37
gd82-09-20d1t02.flac:99c697fe0fdace3b3c9d568a553dd515
gd82-09-20d1t03.flac:d649b2cb48939a2d28d3096e12abe989
gd82-09-20d1t04.flac:e7fe57d2dedd593f541db0d4bb301ea0
gd82-09-20d1t05.flac:e973a5c76412e25cd50769adef2d6bfc
gd82-09-20d1t06.flac:c66561d8b3ff3a33a089c4d389e9cd3e
gd82-09-20d1t07.flac:10ad00afe00db6cf826db55660868219
gd82-09-20d1t08.flac:74f13c9a0bbce6199fce39b8a88598f3
gd82-09-20d1t09.flac:c75f845b8d224921a7d40cc17d381489
gd82-09-20d1t10.flac:7d0f6380e67d5fa24e7c80b412ae4772
gd82-09-20d2t01.flac:b2806743d1f6ee990e7f07c6786a4d40
gd82-09-20d2t02.flac:81d01462a26ce74d96b7958ecec492db
gd82-09-20d2t03.flac:51a730ac97f92d2ecf514581a4a93a9d
gd82-09-20d2t04.flac:be0690af6ad4ecb9339dcc2b2a160a81
gd82-09-20d2t05.flac:89e4efe694150642debcb9e9b42c180d
gd82-09-20d2t06.flac:e6dec2c71762644b74d133bad021d0b6
gd82-09-20d3t01.flac:01fd4a53fd1f9ed96dc27947b362601e
gd82-09-20d3t02.flac:f5a1167d7fe2f3905b7fbfc3f262deb0
gd82-09-20d3t03.flac:51e22d99ff69b018fd42b73752871040
gd82-09-20d3t04.flac:f4bb0707c4bc522718679aacaf9ff3e0
gd82-09-20d3t05.flac:149b29e2b28946aef92957b50c26884f
gd82-09-20d3t06.flac:8ab82ae0b243cdf8b3cf50dbc1986e89
gd82-09-20d3t07.flac:4f0a1faf83992ce1da14ebb9c2c64166
gd82-09-20d3t08.flac:23feb2923da8d0602e2b9beff5d0f495
TypeGrateful Dead
Last seederLast activity 13:15 ago
Size1.036 GB (1111905116 Bytes)
Added2013-01-28 09:20:32
Views0
Hits467
Snatched248 times
Upped bygermain
Num files
[See full list]
33 files
Peers
[See full list]
2 seeders, 0 leechers = 2 peers total

Add a comment

garcialives 2013-01-28 14:30:48
Thanks, I remember this being a nice show.
WRBzWorld 2013-02-10 13:55:09
Thank you!

Add a comment


http://etree.org : http://db.etree.org : http://forums.etree.org : http://wiki.etree.org : Legal : RSS Feed

Contents designed & maintained by the etree.org volunteers
1998-2014, etree.org, except where noted. All Rights Reserved.
Read our terms of service and privacy guidelines