bt.etree.org
etree.org Community Bittorrent Tracker
ArtistGrateful Dead
Showgd82-09-20.122089.senn421.streeter.miller.t-flac16
Report this as
non-Trade-Friendly
Email us
Torrentgd82-09-20.122089.senn421.streeter.miller.t-flac16.torrent (click to download)
Downloads asgd82-09-20.122089.senn421.streeter.miller.t-flac16
Info hashc001c583a2f1aea2adecc5b76a471c6cd82566d4
db linkhttp://db.etree.org/shn/122089 | Show | Source
DescriptionThis is a tagged version of shnid: 122089

Grateful Dead
September 20, 1982
Madison Square Garden
New York, NY

Recording Info:
(FOB) Sennheiser 421 -> Cassette Master (Sony TC-D5M/Maxell XLII-S90)

Transfer Info:
Cassette Master (Sony TC-K677ES) -> Sound Devices 744T (24bit/48k) ->
Adobe Audition v3.0 -> Samplitude Professional v11.2.1 -> FLAC/16
(3 Discs Audio / 1 DVD FLAC)

All Transfers and Mastering By Charlie Miller
charliemiller87@earthlink.net
September 18, 2012

Patch Info:
(FOB) Sennheiser 421 -> Cassette Master -> CD (shnid=3151) supplies:
Tuning (complete track)
Shakedown Street (0:00 - 0:29)
Women Are Smarter (0:00 - 1:26)
Drums (0:10 - end of track)
Space (0:00 - 0:26)

Notes:
-- Set 2 is seamless
-- Thanks to Frank Streeter for lending me his masters
-- Thanks to Joe B. Jones for his help with the pitch correction
_____________________________________________________________________________________

--Set 1--
101-d1t01 - Tuning
102-d1t02 - Shakedown Street ->
103-d1t03 - New Minglewood Blues
104-d1t04 - Candyman ->
105-d1t05 - El Paso
106-d1t06 - Dupree's Diamond Blues
107-d1t07 - It's All Over Now
108-d1t08 - Never Trust A Women
109-d1t09 - Row Jimmy
110-d1t10 - Throwing Stones ->
111-d1t11 - Keep Your Day Job

--Set 2--
201-d2t01 - Tuning
202-d2t02 - Scarlet Begonias ->
203-d2t03 - Fire on the Mountain
204-d2t04 - Man Smart(Women Are Smarter)
205-d2t05 - Terrapin Station ->
206-d2t06 - Drums ->
207-d3t01 - Space ->
208-d3t02 - Spanish Jam ->
209-d3t03 - Truckin' ->
210-d3t04 - The Other One ->
211-d3t05 - Stella Blue ->
212-d3t06 - Sugar Magnolia

--Encore--
213-d3t07 - Touch of Grey
_____________________________________________________________________________________

agging notes:
Show information is embedded within the header of each flac file.
It will display on any player capable of directly playing flac files.
If converted to wav during processing, all tags will be stripped,
however audio data will remain unaffected.
If you must transcode to a lossy format, do so directly Flac > Lossy.
Use ffp to validate audio integrity.
Md5 values will change if tagging is altered.
B. Proctor 1-28-13
_____________________________________________________________________________________

SHNTOOL OUTPUT:
length expanded size cdr WAVE problems fmt ratio filename
0:39.47 6990188 B --- -- ---xx flac 0.6417 gd82-09-20d1t01.flac
12:03.22 127588988 B --- -- ---xx flac 0.6824 gd82-09-20d1t02.flac
8:02.56 85156556 B --- -- ---xx flac 0.6742 gd82-09-20d1t03.flac
6:05.32 64461308 B --- -- ---xx flac 0.6712 gd82-09-20d1t04.flac
5:16.20 55789484 B --- -- ---xx flac 0.6823 gd82-09-20d1t05.flac
6:08.58 65051660 B --- -- ---xx flac 0.6812 gd82-09-20d1t06.flac
8:03.35 85283564 B --- -- ---xx flac 0.6742 gd82-09-20d1t07.flac
7:46.59 82341212 B --- -- ---xx flac 0.6648 gd82-09-20d1t08.flac
10:22.53 109845500 B --- -- ---xx flac 0.6629 gd82-09-20d1t09.flac
5:53.09 62290412 B --- -- ---xx flac 0.6861 gd82-09-20d1t10.flac
5:17.74 56092892 B --- -- ---xx flac 0.6887 gd82-09-20d1t11.flac
3:34.49 37864892 B --- -- ---xx flac 0.5982 gd82-09-20d2t01.flac
12:03.38 127626620 B --- -- ---xx flac 0.6732 gd82-09-20d2t02.flac
9:45.60 103335164 B --- -- ---xx flac 0.6686 gd82-09-20d2t03.flac
7:19.64 77590172 B --- -- ---xx flac 0.6749 gd82-09-20d2t04.flac
11:41.30 123727004 B --- -- ---xx flac 0.6714 gd82-09-20d2t05.flac
6:15.45 66255884 B --- -- ---xx flac 0.6264 gd82-09-20d2t06.flac
7:46.57 82336508 B --- -- ---xx flac 0.5673 gd82-09-20d3t01.flac
3:13.74 34219292 B --- -- ---xx flac 0.6461 gd82-09-20d3t02.flac
6:24.40 67831724 B --- -- ---xx flac 0.6650 gd82-09-20d3t03.flac
5:54.69 62607932 B --- -- ---xx flac 0.6522 gd82-09-20d3t04.flac
7:51.50 83202044 B --- -- ---xx flac 0.6206 gd82-09-20d3t05.flac
10:05.64 106872572 B --- -- ---xx flac 0.6607 gd82-09-20d3t06.flac
6:49.08 72166460 B --- -- ---xx flac 0.6947 gd82-09-20d3t07.flac
174:27.63 1846528032 B 0.6622 (24 files)
Checksumsgd82-09-20d1t01.flac:b065b6de2b7c00044e7a113d56b36395
gd82-09-20d1t02.flac:a0b307e97425f82d13dc731149d9a505
gd82-09-20d1t03.flac:37a701292b4b9a4e092424a6c9e2d671
gd82-09-20d1t04.flac:829fef9ef30886a7f0650d9729579f68
gd82-09-20d1t05.flac:cf83620c5033e20ea7d0a3041b55bced
gd82-09-20d1t06.flac:f6d0b2919924bc565f5fe918928af976
gd82-09-20d1t07.flac:dad2afa6e530ff1f9771e04e2c906cfd
gd82-09-20d1t08.flac:a876f4d89b23efa07d6264ea05847c90
gd82-09-20d1t09.flac:8e9702206bd6272c8bc6b511cbc736f8
gd82-09-20d1t10.flac:52d8409706fdcea9dfad07bf548f46f3
gd82-09-20d1t11.flac:954a26f042ec43ce7c57d03ad2234fc3
gd82-09-20d2t01.flac:d516dbe80bbf7492461cba0cb7b18539
gd82-09-20d2t02.flac:0993a19c569eb37a430091c6bbdc3b55
gd82-09-20d2t03.flac:08adb6564e5c22071c6989b2f175c0a6
gd82-09-20d2t04.flac:1c2ed8fa99fa64c5162c667fc46eb91f
gd82-09-20d2t05.flac:247b7fba6d37f9b0fff12d8bc5b3f075
gd82-09-20d2t06.flac:03e93c18f870b4e30f8a328b2651a004
gd82-09-20d3t01.flac:339e9937b45d52f443ab097655569126
gd82-09-20d3t02.flac:a011a67c82cffeb044007faa088927a5
gd82-09-20d3t03.flac:96dbe7fa49391b71ca521dc74b15bebc
gd82-09-20d3t04.flac:0f66eacaeddc26070ae42cab5244daa4
gd82-09-20d3t05.flac:e5e4dc654a7bd3b12287e5d3a963bd7e
gd82-09-20d3t06.flac:6bcd0a045887d01488a0ecaa06a4fef3
gd82-09-20d3t07.flac:f68b49f7bb216f53f98ae00ede60b6b9
TypeGrateful Dead
Last seederLast activity 17:51 ago
Size1.139 GB (1222796620 Bytes)
Added2013-01-28 09:22:58
Views0
Hits287
Snatched89 times
Upped bygermain
Num files
[See full list]
29 files
Peers
[See full list]
2 seeders, 0 leechers = 2 peers total

No comments yet

Add a comment


http://etree.org : http://db.etree.org : http://forums.etree.org : http://wiki.etree.org : Legal : RSS Feed

Contents designed & maintained by the etree.org volunteers
1998-2014, etree.org, except where noted. All Rights Reserved.
Read our terms of service and privacy guidelines