bt.etree.org
etree.org Community Bittorrent Tracker
ArtistGrateful Dead
Showgd76-06-03.sbd.miller.123607.flac16
Report this as
non-Trade-Friendly
Email us
Torrentgd76-06-03.sbd.miller.123607.flac16.torrent (click to download)
Downloads asgd76-06-03.sbd.miller.123607.flac16
Info hashf117b5f6dab1b31790c98f9fd78f7c7e3aacc587
db linkhttp://db.etree.org/shn/123607 | Show | Source
DescriptionGrateful Dead - June 3, 1976
Paramount Theatre - Portland, OR

Recording Info:
SBD -> Cassette Master -> Cassette (Dolby B) -> WAV (24bit/96k)

Transfer Info:
WAV -> Adobe Audition v3.0 -> Samplitude Professional v11.2.1 -> FLAC/16
(3 Discs Audio / 1 Disc FLAC)

All Transfers and Mastering By Charlie Miller
charliemiller87@earthlink.net
January 26, 2013

Patch Info:
Sony ECM-280 -> Cassette Master -> FLAC/24 supplies:
Might As Well (0:00 - 0:20)
Supplication (2:50 - 3:19)
Franklin's Tower (7:10 - 7:43)

Notes:
-- All disc changes are seamless
-- Stella Blue tease after Let It Grow
-- Thanks to Joe B. Jones for his help with the pitch correction

Set 1:
d1t01 - Might As Well
d1t02 - Cassidy
d1t03 - Row Jimmy
d1t04 - Looks Like Rain
d1t05 - They Love Each Other
d1t06 - Lazy Lightning ->
d1t07 - Supplication
d1t08 - Candyman
d1t09 - The Music Never Stopped
d1t10 - Scarlet Begonias
d2t01 - Dancing In The Street

Set 2:
d2t02 - Tuning
d2t03 - Samson And Delilah
d2t04 - Crazy Fingers ->
d2t05 - Wharf Rat ->
d2t06 - Let It Grow
d2t07 - It Must Have Been The Roses
d2t08 - Around And Around
d3t01 - Help On The Way ->
d3t02 - Slipknot! ->
d3t03 - Franklin's Tower
d3t04 - One More Saturday Night

Encore:
d3t05 - The Wheel


SHNTOOL OUTPUT:
length expanded size cdr WAVE problems fmt ratio filename
6:05.19 64430732 B --- -- ---xx flac 0.6087 gd76-06-03d1t01.flac
5:18.49 56210492 B --- -- ---xx flac 0.5869 gd76-06-03d1t02.flac
11:22.03 120311900 B --- -- ---xx flac 0.5559 gd76-06-03d1t03.flac
8:31.37 90227468 B --- -- ---xx flac 0.5622 gd76-06-03d1t04.flac
9:03.08 95804060 B --- -- ---xx flac 0.5618 gd76-06-03d1t05.flac
2:55.19 30914732 B --- -- ---xx flac 0.5987 gd76-06-03d1t06.flac
5:06.55 54107804 B --- -- ---xx flac 0.6024 gd76-06-03d1t07.flac
7:38.64 80941772 B --- -- ---xx flac 0.5555 gd76-06-03d1t08.flac
6:52.29 72745052 B --- -- ---xx flac 0.5843 gd76-06-03d1t09.flac
11:47.30 124785404 B --- -- ---xx flac 0.5982 gd76-06-03d1t10.flac
12:50.43 135929180 B --- -- ---xx flac 0.6081 gd76-06-03d2t01.flac
0:41.29 7300652 B --- -- ---xx flac 0.4663 gd76-06-03d2t02.flac
7:03.45 74723084 B --- -- ---xx flac 0.5917 gd76-06-03d2t03.flac
11:12.25 118599644 B --- -- ---xx flac 0.5968 gd76-06-03d2t04.flac
12:39.40 133981724 B --- -- ---xx flac 0.5774 gd76-06-03d2t05.flac
17:54.02 189458348 B --- -- ---xx flac 0.5728 gd76-06-03d2t06.flac
8:25.42 89180828 B --- -- ---xx flac 0.5436 gd76-06-03d2t07.flac
8:35.65 90998924 B --- -- ---xx flac 0.5726 gd76-06-03d2t08.flac
5:47.04 61220252 B --- -- ---xx flac 0.5932 gd76-06-03d3t01.flac
11:58.60 126796364 B --- -- ---xx flac 0.5945 gd76-06-03d3t02.flac
15:10.14 160556972 B --- -- ---xx flac 0.5582 gd76-06-03d3t03.flac
6:36.22 69906188 B --- -- ---xx flac 0.5660 gd76-06-03d3t04.flac
4:52.30 51579404 B --- -- ---xx flac 0.5626 gd76-06-03d3t05.flac
198:28.59 2100710980 B 0.5780 (23 files)
Checksumsb103b655175a6b65d2bb6711878dc628 *gd76-06-03d1t01.flac
e6ba2db67ce41855f9549f70e31adf84 *gd76-06-03d1t02.flac
c5945b6d30f0d7b134cab9577abba3a5 *gd76-06-03d1t03.flac
bc33c925f3d58cf8505619a2dbfca83a *gd76-06-03d1t04.flac
762a606f331794f56c6105a528093fed *gd76-06-03d1t05.flac
7219190ad2b8c96df82d3e4bbd1afb19 *gd76-06-03d1t06.flac
bdbef1f51054c02ef5596849cb068742 *gd76-06-03d1t07.flac
9e77bbd8fb53a68dfb40630a0847f459 *gd76-06-03d1t08.flac
e1f8614a05bb3d6d36e601dea99fd77b *gd76-06-03d1t09.flac
7e19a558c757f698b698c90b7e9bba41 *gd76-06-03d1t10.flac
ee053030f061c04c5f70b7a524ea707e *gd76-06-03d2t01.flac
4d429952047a08734df6488806801572 *gd76-06-03d2t02.flac
9b2546cef9361e28b675a50984e18c32 *gd76-06-03d2t03.flac
3f714bf4cd0f9426b0303022612a07f8 *gd76-06-03d2t04.flac
0179501836b6ac1e1f6206c71f817507 *gd76-06-03d2t05.flac
f70fa1e9100fe186e2e68d0441ba1935 *gd76-06-03d2t06.flac
b1d5a2c3dd9bb87845abc0cfd79174da *gd76-06-03d2t07.flac
84b3543615c7becc0fc676696f000661 *gd76-06-03d2t08.flac
b52ffc232693ce687a20bae16f3ac0ea *gd76-06-03d3t01.flac
db0088491565db76fe4a63ea10c32808 *gd76-06-03d3t02.flac
a6c8221dedce09592dbd22d561f6ef1f *gd76-06-03d3t03.flac
8df81bd7592c5d1b5c5fd6da5669bb1b *gd76-06-03d3t04.flac
a331e6cf661ddd3cc9a4fba052f5f2d0 *gd76-06-03d3t05.flac
TypeGrateful Dead
Last seederLast activity 14:45 ago
Size1.131 GB (1214303019 Bytes)
Added2013-01-28 09:59:44
Views0
Hits1131
Snatched726 times
Upped byWHARFRAT73
Num files
[See full list]
26 files
Seeders
[Hide list]
5 Seeder(s)
ip:portclient
version
ul
bytes
dl
bytes
ratiocompleteul
rate
dl
rate
time
connected
time
left
idle
71.55.179.xxx:60044 1.416 GB 1.131 GB 1.252 100.00%
0 B/s 0 B/s 14:51 N/A 14:51
71.118.133.xxx:44211 μtorrent 3.4.2.0 0 B 0 B N/A 100.00%
N/A N/A 1 day, 21:45:09 N/A 13:21
162.197.121.xxx:6881 0 B 0 B N/A 100.00%
N/A N/A 20:23:13 N/A 17:12
50.0.66.xxx:58323 0 B 0 B N/A 100.00%
N/A N/A 1 day, 15:25:33 N/A 24:28
24.154.241.xxx:44822 Mainline 7.4.2 0 B 0 B N/A 100.00%
N/A N/A 21:03:42 N/A 14:45
0 of 5 firewalled (0%) 100.00%
N/AN/A
Leechers
[Hide list]
0 Leecher(s)

Add a comment

WHARFRAT73 2013-01-28 10:04:24
There will be a 24 bit SBD version of this posted sometime soon.
seremetcc 2013-01-28 11:47:50
Thanks!
sprobeck 2013-01-28 14:21:56
Thanks!
geewiz010 2013-01-28 18:39:08
Thanks for this!
Run66 2013-01-30 20:49:01
Thank you !
TPelts 2014-01-29 10:48:25
Thank you. Nice work.

Add a comment


http://etree.org : http://db.etree.org : http://forums.etree.org : http://wiki.etree.org : Legal : RSS Feed

Contents designed & maintained by the etree.org volunteers
1998-2014, etree.org, except where noted. All Rights Reserved.
Read our terms of service and privacy guidelines