bt.etree.org
etree.org Community Bittorrent Tracker
ArtistYonder Mountain String Band
ShowYonder Mountain String Band 2013/01/23. Jefferson Theater - Charlottesville, VA * 4ch schoeps *
Report this as
non-Trade-Friendly
Email us
TorrentYMSB 2013-01-23 4ch schoeps flac.torrent (click to download)
Downloads asYMSB 2013-01-23 4ch schoeps flac
Info hash75b65294a6c5449a6330c45476d7cc742672fe5a
DescriptionYonder Mountain String Band
2013/01/23 (Wed)
Jefferson Theater - Charlottesville, VA

* 16 bit *


Source: Schoeps-CCM4's(Wide ORTF)>Vms5u + Schoeps-CCM41v's>(ORTF)> Sonosax SX- M2 > V3 spdif> R-44(OCM)>@24/48
Location: @ SBD /DFC
Transfer: R44>cd wave>wavelab(fades/resample)>trader's little helper>flac
Taped & transferred by Jamie Scott


Set 1:

01 Intro
02 Out Of The Blue
03 Sometimes I've Won
04 Pockets
05 Dark Hollow
06 Loved You Enough
07 At The End Of The Day
08 Must've Had Your Reasons
09 My Gal.
10 Kentucky Mandolin* >
11 Come Together *

Set 2:

01 Intro
02 Keep On Going
03 Damned If The Right One Didn't Go Wrong
04 Lonesome Letter
05 Half Moon Rising
06 Ten>
07 Natchez Whistle >
08 Ten
09 Complicated
10 Mother's Only Son >
11 Bolton Stretch
12 Vamp In The Middle *
13 No Expectations *
14 Crowd

Encore:

15 Althea
16 Troubled Mind >
17 20 Eyes >
18 Troubled Mind

Comment: Jason Carter on fiddle & vocals entire show
* = Andy Falco on guitar & Chris Pandolfi on banjo
Checksums; flac fingerprint file generated by Trader\'s Little Helper<br />
; generated on January 28, 2013, at 20:46:48<br />
<br />
ymsb 2013-01-23 4ch-schoeps d1t01.flac:05b74e56a2993cd04219f2fbfe24495b<br />
ymsb 2013-01-23 4ch-schoeps d1t02.flac:9fb16f60ade09037ed9c2c345094af61<br />
ymsb 2013-01-23 4ch-schoeps d1t03.flac:f16bb6c87bfc5d53b0714848ea3ab1d5<br />
ymsb 2013-01-23 4ch-schoeps d1t04.flac:51e7babcf5d4ee10f6e7322ecd736ecf<br />
ymsb 2013-01-23 4ch-schoeps d1t05.flac:51ba6af67d483266c01d2414f2535832<br />
ymsb 2013-01-23 4ch-schoeps d1t06.flac:a9ae211eba1cbb7d864cefa11fc12319<br />
ymsb 2013-01-23 4ch-schoeps d1t07.flac:80363842ca5d12b681f82af3442f40c6<br />
ymsb 2013-01-23 4ch-schoeps d1t08.flac:13db58efc010ce59fdc5a5758ba2693f<br />
ymsb 2013-01-23 4ch-schoeps d1t09.flac:acf88ef345ff739765dc4109028d63e3<br />
ymsb 2013-01-23 4ch-schoeps d1t10.flac:81980fce322e664d027d9a290ef1a2f0<br />
ymsb 2013-01-23 4ch-schoeps d1t11.flac:97ba1dee16a67298669e999c66e1ec9f<br />
ymsb 2013-01-23 4ch-schoeps d2t01.flac:04bdf5db95c4916d33151cc1bf41a67c<br />
ymsb 2013-01-23 4ch-schoeps d2t02.flac:5d67ec5290d376e07604aa00ce5f1f9c<br />
ymsb 2013-01-23 4ch-schoeps d2t03.flac:f22b09dd68a790c5213d04059b1ea0dc<br />
ymsb 2013-01-23 4ch-schoeps d2t04.flac:8980cb8770fccd54ad2e81bb5e86da51<br />
ymsb 2013-01-23 4ch-schoeps d2t05.flac:b73afcdb48d56bf8e32d821dac84e18c<br />
ymsb 2013-01-23 4ch-schoeps d2t06.flac:7d5f3472fe491cca74ed24126c499200<br />
ymsb 2013-01-23 4ch-schoeps d2t07.flac:b5b58903e1ba9d193f2ea94a55d9ef12<br />
ymsb 2013-01-23 4ch-schoeps d2t08.flac:2aca31e4a8e572fd61fc978ad2498e22<br />
ymsb 2013-01-23 4ch-schoeps d2t09.flac:cf4fb1606cb6b2308daef58288e1d22a<br />
ymsb 2013-01-23 4ch-schoeps d2t10.flac:55cda98e7e3b6cbf22803379c857ee2c<br />
ymsb 2013-01-23 4ch-schoeps d2t11.flac:9be68b854760019be7018df4c63ce583<br />
ymsb 2013-01-23 4ch-schoeps d2t12.flac:060858cf27b00fc826fc871171a25d72<br />
ymsb 2013-01-23 4ch-schoeps d2t13.flac:7fcc4952453ed230e4f3e63e7efb92ac<br />
ymsb 2013-01-23 4ch-schoeps d2t14.flac:1a7dc01693ec4d04dc9a30ed891e392e<br />
ymsb 2013-01-23 4ch-schoeps d2t15.flac:0c6f33ba98cab999e360ba7436d141ae<br />
ymsb 2013-01-23 4ch-schoeps d2t16.flac:a4a78a9bbd280b0a5dfdac5bf6e849d3<br />
ymsb 2013-01-23 4ch-schoeps d2t17.flac:905a9d1a389d0eb13b408f0fa39e731b<br />
ymsb 2013-01-23 4ch-schoeps d2t18.flac:c52cd6352d86a5d96951acea5b98ddb5<br />
<br />
shntool 3.0.4<br />
Copyright (C) 2000-2007 Jason Jordan <br />
<br />
length expanded size cdr WAVE problems fmt ratio filename<br />
2:05.55 22179404 B --- -- ---xx flac 0.4137 ymsb 2013-01-23 4ch-schoeps d1t01.flac<br />
7:20.15 77651324 B --- -- ---xx flac 0.5085 ymsb 2013-01-23 4ch-schoeps d1t02.flac<br />
4:08.13 43777820 B --- -- ---xx flac 0.5073 ymsb 2013-01-23 4ch-schoeps d1t03.flac<br />
7:06.56 75278156 B --- -- ---xx flac 0.5058 ymsb 2013-01-23 4ch-schoeps d1t04.flac<br />
4:32.14 48013772 B --- -- ---xx flac 0.5080 ymsb 2013-01-23 4ch-schoeps d1t05.flac<br />
3:26.25 36397244 B --- -- ---xx flac 0.5192 ymsb 2013-01-23 4ch-schoeps d1t06.flac<br />
4:50.66 51311276 B --- -- ---xx flac 0.5032 ymsb 2013-01-23 4ch-schoeps d1t07.flac<br />
3:25.43 36263180 B --- -- ---xx flac 0.5082 ymsb 2013-01-23 4ch-schoeps d1t08.flac<br />
11:29.26 121600796 B --- -- ---xx flac 0.5150 ymsb 2013-01-23 4ch-schoeps d1t09.flac<br />
9:29.34 100451612 B --- -- ---xx flac 0.5240 ymsb 2013-01-23 4ch-schoeps d1t10.flac<br />
6:56.02 73387148 B --- -- ---xx flac 0.5270 ymsb 2013-01-23 4ch-schoeps d1t11.flac<br />
1:56.20 20509484 B --- -- ---xx flac 0.4120 ymsb 2013-01-23 4ch-schoeps d2t01.flac<br />
13:17.08 140609660 B --- -- ---xx flac 0.5123 ymsb 2013-01-23 4ch-schoeps d2t02.flac<br />
6:23.24 67617692 B --- -- ---xx flac 0.5157 ymsb 2013-01-23 4ch-schoeps d2t03.flac<br />
5:51.19 61961132 B --- -- ---xx flac 0.5093 ymsb 2013-01-23 4ch-schoeps d2t04.flac<br />
5:21.55 56753804 B --- -- ---xx flac 0.5045 ymsb 2013-01-23 4ch-schoeps d2t05.flac<br />
7:45.59 82164812 B --- -- ---xx flac 0.5303 ymsb 2013-01-23 4ch-schoeps d2t06.flac<br />
4:45.17 50314028 B --- -- ---xx flac 0.4878 ymsb 2013-01-23 4ch-schoeps d2t07.flac<br />
3:55.12 41482268 B --- -- ---xx flac 0.4910 ymsb 2013-01-23 4ch-schoeps d2t08.flac<br />
6:17.58 66639260 B --- -- ---xx flac 0.5057 ymsb 2013-01-23 4ch-schoeps d2t09.flac<br />
12:19.60 130500764 B --- -- ---xx flac 0.5209 ymsb 2013-01-23 4ch-schoeps d2t10.flac<br />
4:08.32 43822508 B --- -- ---xx flac 0.5246 ymsb 2013-01-23 4ch-schoeps d2t11.flac<br />
7:46.43 82303580 B --- -- ---xx flac 0.5360 ymsb 2013-01-23 4ch-schoeps d2t12.flac<br />
14:51.18 157214780 B --- -- ---xx flac 0.5420 ymsb 2013-01-23 4ch-schoeps d2t13.flac<br />
2:23.33 25302860 B --- -- ---xx flac 0.4196 ymsb 2013-01-23 4ch-schoeps d2t14.flac<br />
7:30.30 79450604 B --- -- ---xx flac 0.5172 ymsb 2013-01-23 4ch-schoeps d2t15.flac<br />
1:43.04 18178652 B --- -- ---xx flac 0.5610 ymsb 2013-01-23 4ch-schoeps d2t16.flac<br />
2:24.66 25556876 B --- -- ---xx flac 0.5657 ymsb 2013-01-23 4ch-schoeps d2t17.flac<br />
1:27.73 15518540 B --- -- ---xx flac 0.5493 ymsb 2013-01-23 4ch-schoeps d2t18.flac<br />
175:00.05 1852213036 B 0.5147 (29 files)<br />
TypeYonder Mountain String Band
Last seederLast activity 3:56 ago
Size909.18 MB (953340850 Bytes)
Added2013-01-28 22:19:00
Views0
Hits212
Snatched59 times
Upped byncknottypine
Num files
[See full list]
31 files
Seeders
[Hide list]
1 Seeder(s)
ip:portclient
version
ul
bytes
dl
bytes
ratiocompleteul
rate
dl
rate
time
connected
time
left
idle
72.8.156.xxx:6880 0 B 0 B N/A 100.00%
N/A N/A 1 day, 12:27:28 N/A 43:25
0 of 1 firewalled (0%) 100.00%
N/AN/A
Leechers
[Hide list]
0 Leecher(s)

Add a comment

barren 2013-01-29 04:45:11
Missed you in Atlanta Jamie.
ncknottypine 2013-01-29 12:49:38
Yeah, trying to finish up this house im building. saw that u guys took care of it. thanks for the tapes they sound good. see u soon take care buddy!
kderr88 2013-01-29 22:05:56
Missed you in Asheville! Good luck with the house and hope to see you soon.
tedgerto 2013-02-10 15:36:30
tito says thanks!

Add a comment


http://etree.org : http://db.etree.org : http://forums.etree.org : http://wiki.etree.org : Legal : RSS Feed

Contents designed & maintained by the etree.org volunteers
1998-2014, etree.org, except where noted. All Rights Reserved.
Read our terms of service and privacy guidelines