bt.etree.org
etree.org Community Bittorrent Tracker
ArtistWidespread Panic
ShowWidespread Panic Hard Rock Hotel On The Beach Punta Cana, Dominican Republic 1/28/2013 (Schoeps CCM4V'S)
Report this as
non-Trade-Friendly
Email us
Torrentwsp2013-01-28.flac16.torrent (click to download)
Downloads aswsp2013-01-28.flac16
Info hash3bdbdd32d3f53f4468022b8d77aab4960afb9ddb
db linkhttp://db.etree.org/shn/123643 | Show | Source
DescriptionWidespread Panic
Panic en la Playa II
Hard Rock Hotel
On The Beach
Punta Cana, Dominican Republican
1/28/2013

Source: Schoeps CCM4V'S(din)>Lunatec V2>Benchmark AD2K>
Sound Devices 722 (24/48)
BFOB/DFC/KFC/ZFC/AARP Inside Of Soundboard Area, 6 1/2' High
DSP: Sound Devices 722>Sound Forge 9.0>CD Wave>flac(16)
Recorded By: Z-Man
Seeded By: Z-Man
Ztreamed By Dany and Z-Man, A Team Dirty South Production

Disc I 1st Set

01 Tuning
02 Last Dance >
03 Lil' Kin
04 Can't Get High
05 No Sugar Tonight >
06 New Mother Nature
07 Space Wrangler >
08 Jam >
09 Good People >
10 North >
11 One Kind Favor >
12 Love Tractor

Disc II 2nd Set

01 Tuning
02 Ain't Life Grand >
03 Who Do You Belong To?
04 Holden Oversoul >
05 Stop/Go >
06 Don't Worry About A Thing >
07 Stop/Go >
08 Fishwater
09 Drum Solo >
10 Fishwater
11 Blue Indian

Disc II 2nd Set Con't

01 Surprise Valley >
02 Drum Solo >
03 Surprise Valley >
04 Red Hot Mama >
05 Bowl Legged Woman >
06 Immitation Leather Shoes >
07 Bowl Legged Woman
Encore:
08 Tuning
09 Walkin' >
10 Tall Boy
11 Baby Got Back Outro

Flac Fingerprint

wsp2013-01-28d01t01.flac:9362ca5a523a993bd80b655595333923
wsp2013-01-28d01t02.flac:cbe0365e6d911dfea5fe608e8256ded9
wsp2013-01-28d01t03.flac:9ef5922b64f04394e16b0166bc1c4af8
wsp2013-01-28d01t04.flac:9bef8bd44e5da431cccced4aabe5d3cd
wsp2013-01-28d01t05.flac:cbd37a63f1244a6534b99abac6c9f75c
wsp2013-01-28d01t06.flac:7513a81553decea5d4ecf8881c46a3f7
wsp2013-01-28d01t07.flac:e800c5803b06d18d058bc57f6e4fc9e4
wsp2013-01-28d01t08.flac:2ec5bc21feb7cfdace69ec0ea0d714aa
wsp2013-01-28d01t09.flac:059eab28645af1ac6a6d42688b814dc3
wsp2013-01-28d01t10.flac:c176b66a06e6a75894ba9dd4711a89a2
wsp2013-01-28d01t11.flac:d6b940689188673908cd03754f75f253
wsp2013-01-28d01t12.flac:3c39378aebcc59cdfa801ab0e4d14d5e
wsp2013-01-28d02t01.flac:c17306d6aef51ad660159c4cbc01565c
wsp2013-01-28d02t02.flac:c492e2690a94feb37b5cd17bb3851edf
wsp2013-01-28d02t03.flac:a8302051e972d75d908c92a128908b1a
wsp2013-01-28d02t04.flac:83839742af1ccfeb0f512aa2bd9fb9a6
wsp2013-01-28d02t05.flac:6d63907214b9449577a8610406132201
wsp2013-01-28d02t06.flac:d086e34841f26c02e823a8a5b16f9887
wsp2013-01-28d02t07.flac:a81a42335db46600beb5a749297c6bbe
wsp2013-01-28d02t08.flac:bbaa90e1196f163e855c82cbf6b923bd
wsp2013-01-28d02t09.flac:c1528666225d4d56705537f8675d9e68
wsp2013-01-28d02t10.flac:28e2d5459e125ebbda0db1590ae644b4
wsp2013-01-28d02t11.flac:ce3fb146a3dcf293faa9bd905ed2e82f
wsp2013-01-28d03t01.flac:269d8f45220e03bdfb19b9f48191a074
wsp2013-01-28d03t02.flac:b4aac51157c78ecff2437073b3d8993e
wsp2013-01-28d03t03.flac:6287fdf69c87202b4b5312e389bbd474
wsp2013-01-28d03t04.flac:40dc38f0cbad09283a9b1b47975e618c
wsp2013-01-28d03t05.flac:1c9dce109cf8deb74ff16cde3fca0373
wsp2013-01-28d03t06.flac:63294c100e436af02157d95b4036a522
wsp2013-01-28d03t07.flac:464c4f700efc4380caa8d5b039cf9060
wsp2013-01-28d03t08.flac:b9df0e1d9733bb20eba865abae7f648c
wsp2013-01-28d03t09.flac:f71f561cf8bce5f187382071d2f6b288
wsp2013-01-28d03t10.flac:496a6702ce5a1044de183df68ab747f0
wsp2013-01-28d03t11.flac:f36c0ea926733a0496391ea53976c7ca

Shntool

length expanded size cdr WAVE problems fmt ratio filename
0:38.59 6842012 B --- -- ---xx flac 0.3100 wsp2013-01-28d01t01.flac
8:28.72 89780588 B --- -- ---xx flac 0.4902 wsp2013-01-28d01t02.flac
5:46.56 61166156 B --- -- ---xx flac 0.4740 wsp2013-01-28d01t03.flac
3:35.34 38006012 B --- -- ---xx flac 0.4738 wsp2013-01-28d01t04.flac
2:35.00 27342044 B --- -- ---xx flac 0.4253 wsp2013-01-28d01t05.flac
2:57.27 31286348 B --- -- ---xx flac 0.4648 wsp2013-01-28d01t06.flac
9:05.18 96180380 B --- -- ---xx flac 0.4359 wsp2013-01-28d01t07.flac
6:07.02 64743548 B --- -- ---xx flac 0.4442 wsp2013-01-28d01t08.flac
5:48.58 61523660 B --- -- ---xx flac 0.4859 wsp2013-01-28d01t09.flac
8:40.15 91763324 B --- -- ---xx flac 0.5042 wsp2013-01-28d01t10.flac
11:22.59 120443612 B --- -- ---xx flac 0.4180 wsp2013-01-28d01t11.flac
6:16.47 66436988 B --- -- ---xx flac 0.4796 wsp2013-01-28d01t12.flac
0:29.04 5125052 B --- -- ---xx flac 0.2805 wsp2013-01-28d02t01.flac
5:47.40 61304924 B --- -- ---xx flac 0.4540 wsp2013-01-28d02t02.flac
4:44.66 50252876 B --- -- ---xx flac 0.4431 wsp2013-01-28d02t03.flac
11:16.34 119326412 B --- -- ---xx flac 0.4420 wsp2013-01-28d02t04.flac
10:22.63 109869020 B --- -- ---xx flac 0.4384 wsp2013-01-28d02t05.flac
0:42.45 7514684 B --- -- ---xx flac 0.4390 wsp2013-01-28d02t06.flac
1:46.63 18846620 B --- -- ---xx flac 0.4240 wsp2013-01-28d02t07.flac
4:31.43 47905580 B --- -- ---xx flac 0.4792 wsp2013-01-28d02t08.flac
1:27.08 15365660 B --- -- ---xx flac 0.4491 wsp2013-01-28d02t09.flac
7:42.62 81642668 B --- -- ---xx flac 0.4526 wsp2013-01-28d02t10.flac
5:26.25 57565244 B --- -- ---xx flac 0.3969 wsp2013-01-28d02t11.flac
8:25.60 89223164 B --- -- ---xx flac 0.4800 wsp2013-01-28d03t01.flac
1:21.03 14295500 B --- -- ---xx flac 0.4460 wsp2013-01-28d03t02.flac
4:28.49 47390492 B --- -- ---xx flac 0.4341 wsp2013-01-28d03t03.flac
7:57.55 84272204 B --- -- ---xx flac 0.4759 wsp2013-01-28d03t04.flac
3:11.71 33859436 B --- -- ---xx flac 0.4528 wsp2013-01-28d03t05.flac
3:37.57 38412908 B --- -- ---xx flac 0.4989 wsp2013-01-28d03t06.flac
4:26.58 47058860 B --- -- ---xx flac 0.4414 wsp2013-01-28d03t07.flac
0:47.42 8389628 B --- -- ---xx flac 0.2987 wsp2013-01-28d03t08.flac
4:48.59 50942012 B --- -- ---xx flac 0.4375 wsp2013-01-28d03t09.flac
4:30.49 47743292 B --- -- ---xx flac 0.4718 wsp2013-01-28d03t10.flac
4:52.58 51645260 B --- -- ---xx flac 0.4592 wsp2013-01-28d03t11.flac
174:10.36 1843466168 B 0.4545 (34 files)





Checksumswsp2013-01-28d01t01.flac:9362ca5a523a993bd80b655595333923
wsp2013-01-28d01t02.flac:cbe0365e6d911dfea5fe608e8256ded9
wsp2013-01-28d01t03.flac:9ef5922b64f04394e16b0166bc1c4af8
wsp2013-01-28d01t04.flac:9bef8bd44e5da431cccced4aabe5d3cd
wsp2013-01-28d01t05.flac:cbd37a63f1244a6534b99abac6c9f75c
wsp2013-01-28d01t06.flac:7513a81553decea5d4ecf8881c46a3f7
wsp2013-01-28d01t07.flac:e800c5803b06d18d058bc57f6e4fc9e4
wsp2013-01-28d01t08.flac:2ec5bc21feb7cfdace69ec0ea0d714aa
wsp2013-01-28d01t09.flac:059eab28645af1ac6a6d42688b814dc3
wsp2013-01-28d01t10.flac:c176b66a06e6a75894ba9dd4711a89a2
wsp2013-01-28d01t11.flac:d6b940689188673908cd03754f75f253
wsp2013-01-28d01t12.flac:3c39378aebcc59cdfa801ab0e4d14d5e
wsp2013-01-28d02t01.flac:c17306d6aef51ad660159c4cbc01565c
wsp2013-01-28d02t02.flac:c492e2690a94feb37b5cd17bb3851edf
wsp2013-01-28d02t03.flac:a8302051e972d75d908c92a128908b1a
wsp2013-01-28d02t04.flac:83839742af1ccfeb0f512aa2bd9fb9a6
wsp2013-01-28d02t05.flac:6d63907214b9449577a8610406132201
wsp2013-01-28d02t06.flac:d086e34841f26c02e823a8a5b16f9887
wsp2013-01-28d02t07.flac:a81a42335db46600beb5a749297c6bbe
wsp2013-01-28d02t08.flac:bbaa90e1196f163e855c82cbf6b923bd
wsp2013-01-28d02t09.flac:c1528666225d4d56705537f8675d9e68
wsp2013-01-28d02t10.flac:28e2d5459e125ebbda0db1590ae644b4
wsp2013-01-28d02t11.flac:ce3fb146a3dcf293faa9bd905ed2e82f
wsp2013-01-28d03t01.flac:269d8f45220e03bdfb19b9f48191a074
wsp2013-01-28d03t02.flac:b4aac51157c78ecff2437073b3d8993e
wsp2013-01-28d03t03.flac:6287fdf69c87202b4b5312e389bbd474
wsp2013-01-28d03t04.flac:40dc38f0cbad09283a9b1b47975e618c
wsp2013-01-28d03t05.flac:1c9dce109cf8deb74ff16cde3fca0373
wsp2013-01-28d03t06.flac:63294c100e436af02157d95b4036a522
wsp2013-01-28d03t07.flac:464c4f700efc4380caa8d5b039cf9060
wsp2013-01-28d03t08.flac:b9df0e1d9733bb20eba865abae7f648c
wsp2013-01-28d03t09.flac:f71f561cf8bce5f187382071d2f6b288
wsp2013-01-28d03t10.flac:496a6702ce5a1044de183df68ab747f0
wsp2013-01-28d03t11.flac:f36c0ea926733a0496391ea53976c7ca
TypeWidespread Panic
Last seederLast activity 20:38 ago
Size799.12 MB (837942160 Bytes)
Added2013-01-29 01:52:59
Views0
Hits1188
Snatched660 times
Upped byzmanatl
Num files
[See full list]
35 files
Peers
[See full list]
1 seeder, 0 leechers = 1 peer total

Add a comment

mmoonnchild 2013-01-29 02:06:23
Thanks, Z! When I was listening to your breakdown at setbreak from last night's show, there were a couple of abbreviations I hadn't caught before. AARP, eh? Nice! Hope you're having fun in the sun, brotha!!
ColoradoCorey 2013-01-29 02:59:14
hell ya zman, thanks again for the stream. i raged at work till about 730pm tonight. this show is all about the 2nd set
mike246 2013-01-29 03:14:11
At the Hard Rock Hotel On The Beach Punta Cana. Nice warm spot for a show Zman! Greetings from Mike B in cold CT.
Tomahawk Kid 2013-01-29 03:50:40
Thank you very much!
LGandM 2013-01-29 08:17:03
uhhhhhh... MENU ?????
MLPeep 2013-01-29 08:18:13
Thank You!

I'm jealous . . .
but I am off to SF for a little music . . . and a little girl to take the pain away.
rockymtnryan 2013-01-29 08:39:00
Nice work buddy!
funkdoc 2013-01-29 09:10:50
"Dominican Republican" huh? I like it.
loustults 2013-01-29 11:35:07
Thanks Z! But what was for dinner?
ncknottypine 2013-01-29 12:51:35
nice pull z! fox down there wit u?
Tom_of_Mule 2013-01-29 12:59:24
Thanks Z !
Tom
Blues_Ken 2013-01-29 13:29:53
Thank you Zman

Add a comment


http://etree.org : http://db.etree.org : http://forums.etree.org : http://wiki.etree.org : Legal : RSS Feed

Contents designed & maintained by the etree.org volunteers
1998-2014, etree.org, except where noted. All Rights Reserved.
Read our terms of service and privacy guidelines