bt.etree.org
etree.org Community Bittorrent Tracker
ArtistGrateful Dead
Showgd82-09-21.97705.mtx.seamons.t-flac16
Report this as
non-Trade-Friendly
Email us
Torrentgd82-09-21.97705.mtx.seamons.sbeok.t-flac16.torrent (click to download)
Downloads asgd82-09-21.97705.mtx.seamons.sbeok.t-flac16
Info hash41ccb9a60c46c6c4900cbf8b02204f7a6653bd42
db linkhttp://db.etree.org/shn/97705 | Show | Source
DescriptionThis is a tagged version of shnid: 97705

Grateful Dead
September 21, 1982
Madison Square Garden
New York, NY

Jerry Garcia - Lead Guitar, Vocals
Mickey Hart - Drums
Bill Kreutzmann - Drums
Phil Lesh - Electric Bass, Vocals
Brent Mydland - Keyboards, Vocals
Bob Weir - Rhythm Guitar, Vocals

*Matrix*

-----------------------------------------------------------------
SBD (shnid=34754):

Bill Tetzeli's pitch correction of this source:

Recording Info:
SBD -> Cassette Master -> Dat

Transfer Info:
Dat (Sony D8) -> CD (Tascam CDRW700) -> Samplitude Professional v7.02 -> FLAC
(3 Discs Audio / 2 Discs FLAC)

All Transfers and Mastering By Charlie Miller
charliemiller87@earthlink.net
April 3, 2006

Patch Info:
(FOB/18th Row) Senn 421>Cm>CD>Samplitude>WAV (Recorded By Jim Wise)
Loser patched from 5:29 - 5:36
Not Fade Away patched from 0:09 - 0:24

-----------------------------------------------------------------
AUD (shnid=3152):

Jim Wise (18th row - Center) Sennheiser 421's > Sony TC-D5 > Master Cassette >
Playback on Nak Dragon > Sony R700 DAT deck (sbm-on) - used only
as A>D converter (44.1khz) > ZA2 > CDR (x1)
> EAC(tracked with Addawav & CDWav) >SHN

-----------------------------------------------------------------
Thank you to Charlie Miller and Bill Tetzeli for the SBD transfer,
to Jim Wise for recording the show,
and to Rob Bertrando for verifying the pitch.

Matrix by Hunter Seamons using Final Cut Pro (SHN & FLAC>AIFF>Final Cut>WAV>FLAC)
March 3, 2009
___________________________________________________________________________________

--Set 1--
101-d1t01 - Introduction By John Scher
102-d1t02 - Playing in the Band ->
103-d1t03 - Crazy Fingers ->
104-d1t04 - Me & My Uncle ->
105-d1t05 - Big River
106-d1t06 - West L.A. Fadeaway
107-d1t07 - Beat It on Down the Line
108-d1t08 - Loser
109-d1t09 - Looks Like Rain
110-d1t10 - China Cat Sunflower ->
111-d1t11 - I Know You Rider

--Set 2--
201-d2t01 - Touch of Grey ->
202-d2t02 - Samson & Delilah
203-d2t03 - High Time
204-d2t04 - Estimated Prophet ->
205-d2t05 - He's Gone ->
206-d2t06 - Drums ->
207-d3t01 - Space ->
208-d3t02 - Throwing Stones ->
209-d3t03 - Not Fade Away ->
210-d3t04 - Black Peter ->
211-d3t05 - Good Lovin'

--Encore--
212-d3t06 - U.S. Blues
___________________________________________________________________________________

Notes:
Fades were used to create a continuous AUD track.
One brief cut in the AUD near the end of He's Gone.
___________________________________________________________________________________

Tagging notes:
Show information is embedded within the header of each flac file.
It will display on any player capable of directly playing flac files.
If converted to wav during processing, all tags will be stripped,
however audio data will remain unaffected.
If you must transcode to a lossy format, do so directly Flac > Lossy.
Use ffp to validate audio integrity.
Md5 values will change if tagging is altered.
B. Proctor 4-01-11
____________________________________________________________________________

length expanded size cdr WAVE problems fmt ratio filename
0:30.62 5437868 B --- -- ---xx gd82-09-21d1t01.flac
10:05.70 106886684 B --- -- ---xx gd82-09-21d1t02.flac
10:02.50 106310444 B --- -- ---xx gd82-09-21d1t03.flac
3:01.19 31973132 B --- -- ---xx gd82-09-21d1t04.flac
6:29.42 68718428 B --- -- ---xx gd82-09-21d1t05.flac
8:19.25 88082444 B --- -- ---xx gd82-09-21d1t06.flac
3:28.00 36691244 B --- -- ---xx gd82-09-21d1t07.flac
7:22.54 78095852 B --- -- ---xx gd82-09-21d1t08.flac
8:51.17 93708428 B --- -- ---xx gd82-09-21d1t09.flac
5:53.09 62290412 B --- -- ---xx gd82-09-21d1t10.flac
6:38.32 70282508 B --- -- ---xx gd82-09-21d1t11.flac
6:35.25 69736844 B --- -- ---xx gd82-09-21d2t01.flac
8:06.61 85873916 B --- -- ---xx gd82-09-21d2t02.flac
8:15.73 87489740 B --- -- ---xx gd82-09-21d2t03.flac
13:16.17 140454428 B --- -- ---xx gd82-09-21d2t04.flac
10:51.56 114968156 B --- -- ---xx gd82-09-21d2t05.flac
6:20.11 67057916 B --- -- ---xx gd82-09-21d2t06.flac
8:26.71 89425436 B --- -- ---xx gd82-09-21d3t01.flac
6:03.04 64042652 B --- -- ---xx gd82-09-21d3t02.flac
7:08.38 75588620 B --- -- ---xx gd82-09-21d3t03.flac
9:22.22 99188588 B --- -- ---xx gd82-09-21d3t04.flac
9:43.19 102885932 B --- -- ---xx gd82-09-21d3t05.flac
4:56.20 52261484 B --- -- ---xx gd82-09-21d3t06.flac
169:49.47 1797451156 B 0.6595 (23 files)

Checksumsgd82-09-21d1t01.flac:e9ae4fbf9e3ca93b8a0f6b9806756717
gd82-09-21d1t02.flac:ba28be20f6c7461d941d95fe24924db6
gd82-09-21d1t03.flac:8a02b127d189f09d52f70f9761fd4527
gd82-09-21d1t04.flac:c4a8c4e1423a97778df6271d7146de09
gd82-09-21d1t05.flac:ab403330b7f5cf0f9587f4a4cfecb5c2
gd82-09-21d1t06.flac:f19a0080db1a870cd0bed01d6f0c406f
gd82-09-21d1t07.flac:5bc57477b79d06c0f4d452214b40d67c
gd82-09-21d1t08.flac:f0f19bb8462fdca7ff7240d8e0272c7d
gd82-09-21d1t09.flac:1ecce20f7d35cff7d345719c7fde9657
gd82-09-21d1t10.flac:d68b010be5a005cdd58f17989fd560dd
gd82-09-21d1t11.flac:a07c00cce5ee9766ffa0ec1ff1f81ee6
gd82-09-21d2t01.flac:7a1109a4f133f4d0fcd280729b519901
gd82-09-21d2t02.flac:67767c3ec905aba3ecd3a6ae4bab8c55
gd82-09-21d2t03.flac:505af995673deafcbdb1d981723891fb
gd82-09-21d2t04.flac:d7a992b26beabf01e5b192814f1ee52e
gd82-09-21d2t05.flac:8c3b5c5b816433c71b387cded4b27b94
gd82-09-21d2t06.flac:29f5f1f1723a716dfff29aae2aca683a
gd82-09-21d3t01.flac:083a868e59284a12b16ffa1cfaaa5f6d
gd82-09-21d3t02.flac:5727253eda8bb2b5a97b056adaca4093
gd82-09-21d3t03.flac:c94bee3043609a903fc19a2d3d517d95
gd82-09-21d3t04.flac:b5f30a091c3693375f01360b67d90a9e
gd82-09-21d3t05.flac:25d52929b286ce17095fd76e42089895
gd82-09-21d3t06.flac:44a6fa41f160cf54f66711f1bc08b59b
TypeGrateful Dead
Last seederLast activity 19:27 ago
Size1.107 GB (1188986472 Bytes)
Added2013-01-29 09:08:48
Views0
Hits454
Snatched213 times
Upped bygermain
Num files
[See full list]
33 files
Peers
[See full list]
1 seeder, 0 leechers = 1 peer total

Add a comment

WRBzWorld 2013-02-10 13:40:34
Thank you!

Add a comment


http://etree.org : http://db.etree.org : http://forums.etree.org : http://wiki.etree.org : Legal : RSS Feed

Contents designed & maintained by the etree.org volunteers
1998-2014, etree.org, except where noted. All Rights Reserved.
Read our terms of service and privacy guidelines