bt.etree.org
etree.org Community Bittorrent Tracker
ArtistGrateful Dead
Showgd76-06-03.sbd.miller.123608.flac24
Report this as
non-Trade-Friendly
Email us
Torrentgd76-06-03.sbd.miller.123608.flac24.torrent (click to download)
Downloads asgd76-06-03.sbd.miller.123608.flac24
Info hash1df62ac67bb3b01c3b9abbaf70d42c1537550888
db linkhttp://db.etree.org/shn/123608 | Show | Source
DescriptionGrateful Dead - June 3, 1976
Paramount Theatre - Portland, OR

Recording Info:
SBD -> Cassette Master -> Cassette (Dolby B) -> WAV (24bit/96k)

Transfer Info:
WAV -> Adobe Audition v3.0 -> Samplitude Professional v11.2.1 -> FLAC/24
(1 DVD FLAC)

All Transfers and Mastering By Charlie Miller
charliemiller87@earthlink.net
January 26, 2013

Patch Info:
Sony ECM-280 -> Cassette Master -> FLAC/24 supplies:
Might As Well (0:00 - 0:20)
Supplication (2:50 - 3:19)
Franklin's Tower (7:10 - 7:43)

Notes:
-- Stella Blue tease after Let It Grow
-- Thanks to Joe B. Jones for his help with the pitch correction

Set 1:
s1t01 - Might As Well
s1t02 - Cassidy
s1t03 - Row Jimmy
s1t04 - Looks Like Rain
s1t05 - They Love Each Other
s1t06 - Lazy Lightning ->
s1t07 - Supplication
s1t08 - Candyman
s1t09 - The Music Never Stopped
s1t10 - Scarlet Begonias
s1t11 - Dancing In The Street

Set 2:
s2t01 - Tuning
s2t02 - Samson And Delilah
s2t03 - Crazy Fingers ->
s2t04 - Wharf Rat ->
s2t05 - Let It Grow
s2t06 - It Must Have Been The Roses
s2t07 - Around And Around
s2t08 - Help On The Way ->
s2t09 - Slipknot! ->
s2t10 - Franklin's Tower
s2t11 - One More Saturday Night

Encore:
s2t12 - The Wheel


SHNTOOL OUTPUT:
length expanded size cdr WAVE problems fmt ratio filename
6:05.253 210385964 B cxx -- ---xx flac 0.6831 gd76-06-03s1t01.flac
5:18.661 183549026 B cxx -- ---xx flac 0.6800 gd76-06-03s1t02.flac
11:22.033 392850914 B cxx -- ---xx flac 0.6700 gd76-06-03s1t03.flac
8:31.495 294620954 B cxx -- ---xx flac 0.6723 gd76-06-03s1t04.flac
9:03.117 312835172 B cxx -- ---xx flac 0.6716 gd76-06-03s1t05.flac
2:55.254 100946336 B cxx -- ---xx flac 0.6827 gd76-06-03s1t06.flac
5:06.723 176672570 B cxx -- ---xx flac 0.6789 gd76-06-03s1t07.flac
7:38.854 264299924 B cxx -- ---xx flac 0.6695 gd76-06-03s1t08.flac
6:52.395 237539810 B cxx -- ---xx flac 0.6776 gd76-06-03s1t09.flac
11:47.396 407460404 B cxx -- ---xx flac 0.6810 gd76-06-03s1t10.flac
12:50.566 443846012 B cxx -- ---xx flac 0.6831 gd76-06-03s1t11.flac
0:41.391 23841032 B cxx -- ---xx flac 0.6422 gd76-06-03s2t01.flac
7:03.601 243994382 B cxx -- ---xx flac 0.6832 gd76-06-03s2t02.flac
11:12.328 387261260 B cxx -- ---xx flac 0.6864 gd76-06-03s2t03.flac
12:39.535 437492480 B cxx -- ---xx flac 0.6790 gd76-06-03s2t04.flac
17:54.035 618644378 B cxx -- ---xx flac 0.6749 gd76-06-03s2t05.flac
8:25.554 291199244 B cxx -- ---xx flac 0.6687 gd76-06-03s2t06.flac
8:35.867 297139310 B cxx -- ---xx flac 0.6717 gd76-06-03s2t07.flac
5:47.049 199900298 B cxx -- ---xx flac 0.6802 gd76-06-03s2t08.flac
11:58.808 414033350 B cxx -- ---xx flac 0.6812 gd76-06-03s2t09.flac
15:10.178 524262584 B cxx -- ---xx flac 0.6670 gd76-06-03s2t10.flac
6:36.299 228268028 B cxx -- ---xx flac 0.6738 gd76-06-03s2t11.flac
4:52.393 168418694 B cxx -- ---xx flac 0.6684 gd76-06-03s2t12.flac
198:28.787 6859462126 B 0.6762 (23 files)
Checksums7138d61aa00320b29015d409c718d76c *gd76-06-03s1t01.flac
d96acfdf634ece2596a4ddcebdc6a49e *gd76-06-03s1t02.flac
de345e00afc9f796d4649be254a9b91a *gd76-06-03s1t03.flac
0b0d96f5fd84d2efa3e7d38f2273d58b *gd76-06-03s1t04.flac
ef14a663ef5899cb1eb55e4edd128798 *gd76-06-03s1t05.flac
c2e7043617b413350f17394713669164 *gd76-06-03s1t06.flac
8206cb7fd245e1d0a3bddec1fb010c00 *gd76-06-03s1t07.flac
ad4ff605861f4d145987fd001376f953 *gd76-06-03s1t08.flac
ec13ea87cca699367d84125bd19cdb26 *gd76-06-03s1t09.flac
497439f54690c853eeb57694d3650bfb *gd76-06-03s1t10.flac
3055d82d71e37aee77c3ef770467c781 *gd76-06-03s1t11.flac
2ccdefff397a17b76a9379cbb0f56139 *gd76-06-03s2t01.flac
8bbee65cfa9e86591c3c4f8d2d401df9 *gd76-06-03s2t02.flac
16443d04e43509aec4479349e358e7dd *gd76-06-03s2t03.flac
76c1f795af87deb2cc73dcfcabdff944 *gd76-06-03s2t04.flac
29848cc21483fbdcbe765d00c0727945 *gd76-06-03s2t05.flac
cd7269d2bf32709678f14740a66636cc *gd76-06-03s2t06.flac
fe2aec05dd1226b59fa2f224dad782d6 *gd76-06-03s2t07.flac
0b7d7c5c1b9a9675e62665148731d822 *gd76-06-03s2t08.flac
605230dfc2bf68c956628542aff90cf5 *gd76-06-03s2t09.flac
e522c0174f08e799ce66799be8d90952 *gd76-06-03s2t10.flac
e9189355bc8672aa7f84c613fdedaf93 *gd76-06-03s2t11.flac
a0d566887d917e0184142858f5f75101 *gd76-06-03s2t12.flac
TypeGrateful Dead
Last seederLast activity 10:44 ago
Size4.320 GB (4638179603 Bytes)
Added2013-01-29 09:46:09
Views0
Hits711
Snatched327 times
Upped byWHARFRAT73
Num files26 files
File List
[Hide list]
filenamesizemd5
gd76-06-03s2t05.flac398.19 MBN/A
gd76-06-03s2t10.flac333.50 MBN/A
gd76-06-03s1t11.flac289.14 MBN/A
gd76-06-03s2t04.flac283.30 MBN/A
gd76-06-03s2t09.flac268.96 MBN/A
gd76-06-03s1t10.flac264.63 MBN/A
gd76-06-03s2t03.flac253.52 MBN/A
gd76-06-03s1t03.flac251.02 MBN/A
gd76-06-03s1t05.flac200.37 MBN/A
gd76-06-03s2t07.flac190.33 MBN/A
gd76-06-03s1t04.flac188.89 MBN/A
gd76-06-03s2t06.flac185.71 MBN/A
gd76-06-03s1t08.flac168.74 MBN/A
gd76-06-03s2t02.flac158.98 MBN/A
gd76-06-03s1t09.flac153.50 MBN/A
gd76-06-03s2t11.flac146.67 MBN/A
gd76-06-03s1t01.flac137.06 MBN/A
gd76-06-03s2t08.flac129.68 MBN/A
gd76-06-03s1t02.flac119.04 MBN/A
gd76-06-03s1t07.flac114.39 MBN/A
gd76-06-03s2t12.flac107.35 MBN/A
gd76-06-03s1t06.flac65.72 MBN/A
gd76-06-03s2t01.flac14.60 MBN/A
gd76-06-03.123608.txt3.3 kBN/A
gd76-06-03.md51.3 kBN/A
gd76-06-03.ffp1.2 kBN/A
Peers
[See full list]
2 seeders, 0 leechers = 2 peers total

Add a comment

seremetcc 2013-01-29 15:19:04
Thanks for the hi-res!
timk 2013-01-30 03:23:05
Thanks, much appreciated!
schoonbr 2013-02-10 00:12:54
The Hi-Res is beautiful! Thank you!
psimo2 2013-09-23 19:41:33
Thanks for sharing

Add a comment


http://etree.org : http://db.etree.org : http://forums.etree.org : http://wiki.etree.org : Legal : RSS Feed

Contents designed & maintained by the etree.org volunteers
1998-2014, etree.org, except where noted. All Rights Reserved.
Read our terms of service and privacy guidelines