bt.etree.org
etree.org Community Bittorrent Tracker
ArtistGrateful Dead
Showgd82-10-10.senn421.gans.miller.123624.flac16
Report this as
non-Trade-Friendly
Email us
Torrentgd82-10-10.senn421.gans.miller.123624.flac16.torrent (click to download)
Downloads asgd82-10-10.senn421.gans.miller.123624.flac16
Info hash8e8cad7c6a32bccebbc39df096bb466327f0e84f
db linkhttp://db.etree.org/shn/123624 | Show | Source
DescriptionGrateful Dead - October 10, 1982
Frost Amphitheatre - Palo Alto, CA

Recording Info:
Sennheiser 421 -> Cassette Master (Sony TC-D5M)

Transfer Info:
Cassette Master (Nakamichi DR-1) -> Sound Devices 744T (24bit/48k) ->
Adobe Audition v3.0 -> Samplitude Professional v11.2.1 -> FLAC/16
(3 Discs Audio / 1 DVD FLAC)

All Transfers and Mastering By Charlie Miller
charliemiller87@earthlink.net
January 28, 2013

Patch Info:
(FOB) Nakamichi 700 -> Cassette Master (shnid=109823) supplies:
(I Can't Get No) Satisfaction (complete track)
It's All Over Now, Baby Blue (complete track)

Notes:
-- Set 2 is seamless
-- Thanks to David Gans for lending me his masters
-- David was patched out of Eddie Claridge set up at the SBD
-- Thanks to Joe B. Jones for his help with the pitch correction

Set 1:
d1t01 - New Minglewood Blues ->
d1t02 - Sugaree ->
d1t03 - Little Red Roosterd
d1t04 - Tennessee Jed
d1t05 - Cassidy
d1t06 - Loser
d1t07 - Far From Me ->
d1t08 - Looks Like Rain ->
d1t09 - China Cat Sunflower ->
d1t10 - I Know You Rider

Set 2:
d2t01 - Tuning
d2t02 - Playing In The Band ->
d2t03 - Crazy Fingers ->
d2t04 - Lost Sailor ->
d2t05 - Saint Of Circumstance ->
d2t06 - Touch Of Grey ->
d2t07 - Drums ->
d3t01 - Space ->
d3t02 - The Wheel ->
d3t03 - Throwing Stones ->
d3t04 - Not Fade Away ->
d3t05 - Black Peter ->
d3t06 - Sugar Magnolia

Encore:
d3t07 - (I Can't Get No) Satisfaction ->
d3t08 - It's All Over Now, Baby Blue


SHNTOOL OUTPUT:
length expanded size cdr WAVE problems fmt ratio filename
8:02.31 85097756 B --- -- ---xx flac 0.6384 gd82-10-10d1t01.flac
10:17.62 108984668 B --- -- ---xx flac 0.6291 gd82-10-10d1t02.flac
8:48.47 93249788 B --- -- ---xx flac 0.6170 gd82-10-10d1t03.flac
8:20.59 88338812 B --- -- ---xx flac 0.6201 gd82-10-10d1t04.flac
6:29.17 68659628 B --- -- ---xx flac 0.6292 gd82-10-10d1t05.flac
7:34.61 80229116 B --- -- ---xx flac 0.6228 gd82-10-10d1t06.flac
4:14.07 44822108 B --- -- ---xx flac 0.6389 gd82-10-10d1t07.flac
8:59.54 95206652 B --- -- ---xx flac 0.6099 gd82-10-10d1t08.flac
6:06.69 64724732 B --- -- ---xx flac 0.6353 gd82-10-10d1t09.flac
6:12.30 65691404 B --- -- ---xx flac 0.6539 gd82-10-10d1t10.flac
2:12.15 23320124 B --- -- ---xx flac 0.5343 gd82-10-10d2t01.flac
7:10.50 75969644 B --- -- ---xx flac 0.6375 gd82-10-10d2t02.flac
11:10.38 118277420 B --- -- ---xx flac 0.6274 gd82-10-10d2t03.flac
7:26.62 78820268 B --- -- ---xx flac 0.6086 gd82-10-10d2t04.flac
7:03.54 74744252 B --- -- ---xx flac 0.6469 gd82-10-10d2t05.flac
7:20.36 77700716 B --- -- ---xx flac 0.6562 gd82-10-10d2t06.flac
8:12.27 86852348 B --- -- ---xx flac 0.5764 gd82-10-10d2t07.flac
6:51.16 72538076 B --- -- ---xx flac 0.5558 gd82-10-10d3t01.flac
5:14.39 55481372 B --- -- ---xx flac 0.6337 gd82-10-10d3t02.flac
7:48.55 82684604 B --- -- ---xx flac 0.6318 gd82-10-10d3t03.flac
4:40.35 49474364 B --- -- ---xx flac 0.6390 gd82-10-10d3t04.flac
8:18.21 87896636 B --- -- ---xx flac 0.6139 gd82-10-10d3t05.flac
11:15.32 119145308 B --- -- ---xx flac 0.6368 gd82-10-10d3t06.flac
6:20.65 67184924 B --- -- ---xx flac 0.6726 gd82-10-10d3t07.flac
6:48.28 72037100 B --- -- ---xx flac 0.6381 gd82-10-10d3t08.flac
183:01.35 1937131820 B 0.6256 (25 files)
Checksums40541c11eaec53c6f0a8beb89e8ef7cf *gd82-10-10d1t01.flac
8044e8b3e8f24ac042f87dd7701ea36a *gd82-10-10d1t02.flac
2e4f7d316828c689177034a0ea24a51f *gd82-10-10d1t03.flac
fb64ab170b66a30761058d1227e117c8 *gd82-10-10d1t04.flac
4b68c4a8c0435c2d34ccb65d2ba787c6 *gd82-10-10d1t05.flac
017b4151234bccd3206ca00687beef4d *gd82-10-10d1t06.flac
a924a22277f234ec232e4244d5933265 *gd82-10-10d1t07.flac
09d5422ef77ed12b06a6a0661b09ed95 *gd82-10-10d1t08.flac
67c5abc21ac0d875544f9fe2bc4c3e10 *gd82-10-10d1t09.flac
22d89714d15a6098592984319c340d64 *gd82-10-10d1t10.flac
8669035fb6c769089be744f4dbf656ab *gd82-10-10d2t01.flac
9aead23ece22ddb640784c05b01db1f2 *gd82-10-10d2t02.flac
06842672d2b18a7b648e42b532ef5189 *gd82-10-10d2t03.flac
f0c7f29140368f95cb1297fb3c609d12 *gd82-10-10d2t04.flac
2c1f357d1b553bef77f04f33a212cc06 *gd82-10-10d2t05.flac
7b39a7902ef570dcc85f05c8179a12e0 *gd82-10-10d2t06.flac
b9f123de5da58ccf80c602f4152453ea *gd82-10-10d2t07.flac
820998d10f551149d55a94cb94e3f633 *gd82-10-10d3t01.flac
4f8d4858877ac3a6481bbd24101bc435 *gd82-10-10d3t02.flac
accaddf65d8d280771ecac3a91c01779 *gd82-10-10d3t03.flac
c9efca92da223f643242bc45932bcf48 *gd82-10-10d3t04.flac
0efb1b22dc7c8284a12e37f7f5ec44ef *gd82-10-10d3t05.flac
a2b814f47074bc33bd8436f937d793a0 *gd82-10-10d3t06.flac
26b5f46623dcebe9a4f151f2a63de2e7 *gd82-10-10d3t07.flac
e242fd16113b1532014c36b13f6e6dc0 *gd82-10-10d3t08.flac
TypeGrateful Dead
Last seederLast activity 14:34 ago
Size1.129 GB (1211935155 Bytes)
Added2013-01-29 10:04:53
Views0
Hits515
Snatched236 times
Upped byWHARFRAT73
Num files28 files
File List
[Hide list]
filenamesizemd5
gd82-10-10d3t06.flac72.36 MBN/A
gd82-10-10d2t03.flac70.77 MBN/A
gd82-10-10d1t02.flac65.38 MBN/A
gd82-10-10d1t08.flac55.38 MBN/A
gd82-10-10d1t03.flac54.87 MBN/A
gd82-10-10d1t04.flac52.24 MBN/A
gd82-10-10d1t01.flac51.81 MBN/A
gd82-10-10d3t05.flac51.46 MBN/A
gd82-10-10d3t03.flac49.82 MBN/A
gd82-10-10d2t06.flac48.62 MBN/A
gd82-10-10d2t07.flac47.74 MBN/A
gd82-10-10d1t06.flac47.65 MBN/A
gd82-10-10d2t02.flac46.19 MBN/A
gd82-10-10d2t05.flac46.11 MBN/A
gd82-10-10d2t04.flac45.75 MBN/A
gd82-10-10d3t08.flac43.84 MBN/A
gd82-10-10d3t07.flac43.09 MBN/A
gd82-10-10d1t05.flac41.20 MBN/A
gd82-10-10d1t10.flac40.97 MBN/A
gd82-10-10d1t09.flac39.21 MBN/A
gd82-10-10d3t01.flac38.45 MBN/A
gd82-10-10d3t02.flac33.53 MBN/A
gd82-10-10d3t04.flac30.15 MBN/A
gd82-10-10d1t07.flac27.31 MBN/A
gd82-10-10d2t01.flac11.88 MBN/A
gd82-10-10.123624.txt3.7 kBN/A
gd82-10-10.md51.4 kBN/A
gd82-10-10.ffp1.3 kBN/A
Peers
[See full list]
5 seeders, 0 leechers = 5 peers total

Add a comment

Hal R 2013-01-29 12:10:51
thank you
Blacula 2013-01-30 08:36:41
I know what I'll be listening to today. Thanks!
balto7 2013-01-30 11:01:27
Thanks a lot! There are already some great aud. recordings of this show. This one is particularly good.

Add a comment


http://etree.org : http://db.etree.org : http://forums.etree.org : http://wiki.etree.org : Legal : RSS Feed

Contents designed & maintained by the etree.org volunteers
1998-2014, etree.org, except where noted. All Rights Reserved.
Read our terms of service and privacy guidelines