bt.etree.org
etree.org Community Bittorrent Tracker
ArtistGrateful Dead
Showgd82-10-10.senn421.gans.miller.123623.flac24
Report this as
non-Trade-Friendly
Email us
Torrentgd82-10-10.senn421.gans.miller.123623.flac24.torrent (click to download)
Downloads asgd82-10-10.senn421.gans.miller.123623.flac24
Info hash1d5a3b17258b5e2fcd98a75635ce1e21953e02f4
db linkhttp://db.etree.org/shn/123623 | Show | Source
DescriptionGrateful Dead - October 10, 1982
Frost Amphitheatre - Palo Alto, CA

Recording Info:
Sennheiser 421 -> Cassette Master (Sony TC-D5M)

Transfer Info:
Cassette Master (Nakamichi DR-1) -> Sound Devices 744T (24bit/48k) ->
Adobe Audition v3.0 -> Samplitude Professional v11.2.1 -> FLAC/24
(1 DVD FLAC)

All Transfers and Mastering By Charlie Miller
charliemiller87@earthlink.net
January 28, 2013

Patch Info:
(FOB) Nakamichi 700 -> Cassette Master (shnid=109823) supplies:
(I Can't Get No) Satisfaction (complete track)
It's All Over Now, Baby Blue (complete track)

Notes:
-- Thanks to David Gans for lending me his masters
-- David was patched out of Eddie Claridge set up at the SBD
-- Thanks to Joe B. Jones for his help with the pitch correction

Set 1:
s1t01 - New Minglewood Blues ->
s1t02 - Sugaree ->
s1t03 - Little Red Rooster
s1t04 - Tennessee Jed
s1t05 - Cassidy
s1t06 - Loser
s1t07 - Far From Me ->
s1t08 - Looks Like Rain ->
s1t09 - China Cat Sunflower ->
s1t10 - I Know You Rider

Set 2:
s2t01 - Tuning
s2t02 - Playing In The Band ->
s2t03 - Crazy Fingers ->
s2t04 - Lost Sailor ->
s2t05 - Saint Of Circumstance ->
s2t06 - Touch Of Grey ->
s2t07 - Drums ->
s2t08 - Space ->
s2t09 - The Wheel ->
s2t10 - Throwing Stones ->
s2t11 - Not Fade Away ->
s2t12 - Black Peter ->
s2t13 - Sugar Magnolia

Encore:
s2t14 - (I Can't Get No) Satisfaction ->
s2t15 - It's All Over Now, Baby Blue


SHNTOOL OUTPUT:
length expanded size cdr WAVE problems fmt ratio filename
8:02.421 138937214 B cxx -- ---xx flac 0.7579 gd82-10-10s1t01.flac
10:17.824 177933440 B cxx -- ---xx flac 0.7529 gd82-10-10s1t02.flac
8:48.629 152245190 B cxx -- ---xx flac 0.7455 gd82-10-10s1t03.flac
8:20.784 144225830 B cxx -- ---xx flac 0.7478 gd82-10-10s1t04.flac
6:29.231 112098446 B cxx -- ---xx flac 0.7529 gd82-10-10s1t05.flac
7:34.816 130987040 B cxx -- ---xx flac 0.7493 gd82-10-10s1t06.flac
4:14.085 73176428 B cxx -- ---xx flac 0.7594 gd82-10-10s1t07.flac
8:59.730 155442416 B cxx -- ---xx flac 0.7416 gd82-10-10s1t08.flac
6:06.914 105671336 B cxx -- ---xx flac 0.7566 gd82-10-10s1t09.flac
6:12.404 107252252 B cxx -- ---xx flac 0.7682 gd82-10-10s1t10.flac
2:12.198 38073104 B cxx -- ---xx flac 0.6942 gd82-10-10s2t01.flac
7:10.658 124029620 B cxx -- ---xx flac 0.7589 gd82-10-10s2t02.flac
11:10.510 193107002 B cxx -- ---xx flac 0.7529 gd82-10-10s2t03.flac
7:26.824 128685404 B cxx -- ---xx flac 0.7409 gd82-10-10s2t04.flac
7:03.731 122034584 B cxx -- ---xx flac 0.7637 gd82-10-10s2t05.flac
7:20.471 126855722 B cxx -- ---xx flac 0.7700 gd82-10-10s2t06.flac
8:12.367 141801728 B cxx -- ---xx flac 0.7207 gd82-10-10s2t07.flac
6:51.209 118428266 B cxx -- ---xx flac 0.7087 gd82-10-10s2t08.flac
5:14.522 90582386 B cxx -- ---xx flac 0.7560 gd82-10-10s2t09.flac
7:48.735 134995730 B cxx -- ---xx flac 0.7546 gd82-10-10s2t10.flac
4:40.458 80772020 B cxx -- ---xx flac 0.7590 gd82-10-10s2t11.flac
8:18.290 143507474 B cxx -- ---xx flac 0.7442 gd82-10-10s2t12.flac
11:15.426 194522618 B cxx -- ---xx flac 0.7569 gd82-10-10s2t13.flac
6:20.868 109690112 B cxx -- ---xx flac 0.7754 gd82-10-10s2t14.flac
6:48.355 117606386 B cxx -- ---xx flac 0.7544 gd82-10-10s2t15.flac
183:01.461 3162661748 B 0.7507 (25 files)
Checksums62a9dba353758ce216390cf7e9d7c007 *gd82-10-10s1t01.flac
92c22fcef1d08e1940b008d0d99a074a *gd82-10-10s1t02.flac
da544bf03ec21cb5efdcc7e5a4d450cc *gd82-10-10s1t03.flac
fe4751ceb10d89173d16729cf11e1d69 *gd82-10-10s1t04.flac
8d254fd97eaa177552a570c2a8eda94b *gd82-10-10s1t05.flac
fd02828a95a1cf2ab7461e435ee691c3 *gd82-10-10s1t06.flac
92a0d837fc5c12a858c210c15195031f *gd82-10-10s1t07.flac
510d02031e165767ab16c51e1b27bb9b *gd82-10-10s1t08.flac
95518afad6fe37602755166f848d9039 *gd82-10-10s1t09.flac
ebd0dac581bd1c5cb3e5bceb6031a942 *gd82-10-10s1t10.flac
bacd1e60c3d657a91b82d8dea2030546 *gd82-10-10s2t01.flac
6dd8a1ebde469035c3f095622c8ddea9 *gd82-10-10s2t02.flac
6e4327edfe89087e4aaa837bbe8b3221 *gd82-10-10s2t03.flac
0e14d8f4716cce4f9123f49695cdee31 *gd82-10-10s2t04.flac
21ca244e6372c528d677ffcfc77e700e *gd82-10-10s2t05.flac
e063c41f02cf6bdfea5796f67ba900cf *gd82-10-10s2t06.flac
f06ff61a7ea391d26a9a103e410ec304 *gd82-10-10s2t07.flac
9f34984e7402a73a433a917ac4b5406b *gd82-10-10s2t08.flac
30e92de6c670873006e09d3f4387813e *gd82-10-10s2t09.flac
cd4889a4465b02ceab57d2deac3eb4ef *gd82-10-10s2t10.flac
28a03496dd2876d1d7e526b9770aa6e8 *gd82-10-10s2t11.flac
fd6d9c42f5464fa86c42566128eee55f *gd82-10-10s2t12.flac
0df392a090638fc718a1b729a3bb9bb9 *gd82-10-10s2t13.flac
56da582142252960de735ef0de9f8c5d *gd82-10-10s2t14.flac
852fbc2134ca1845639bd66a5d1d4ed7 *gd82-10-10s2t15.flac
TypeGrateful Dead
Last seederLast activity 11:23 ago
Size2.211 GB (2374110158 Bytes)
Added2013-01-29 11:01:59
Views0
Hits390
Snatched112 times
Upped byWHARFRAT73
Num files
[See full list]
28 files
Seeders
[Hide list]
1 Seeder(s)
ip:portclient
version
ul
bytes
dl
bytes
ratiocompleteul
rate
dl
rate
time
connected
time
left
idle
91.121.254.xxx:64303 0 B 0 B N/A 100.00%
N/A N/A 1 day, 05:53:03 N/A 11:23
0 of 1 firewalled (0%) 100.00%
N/AN/A
Leechers
[Hide list]
0 Leecher(s)

Add a comment

seremetcc 2013-01-29 15:18:41
Thanks for the hi-res!

Add a comment


http://etree.org : http://db.etree.org : http://forums.etree.org : http://wiki.etree.org : Legal : RSS Feed

Contents designed & maintained by the etree.org volunteers
1998-2014, etree.org, except where noted. All Rights Reserved.
Read our terms of service and privacy guidelines