bt.etree.org
etree.org Community Bittorrent Tracker
ArtistPhish
ShowPHISH - 1994-05-19 Eugene Hult Center - AT4053 *BY REQUEST*
Report this as
non-Trade-Friendly
Email us
Torrentph1994-05-19.89845.4053.flac16.torrent (click to download)
Downloads asph1994-05-19.89845.4053.flac16
Info hash25ff377ada702b427ff5ca39f663b077a58f7edd
db linkhttp://db.etree.org/shn/89845 | Show | Source
DescriptionPhish
May 19, 1994
The Hult Center
Eugene, OR

source:
AT 4053 (w/ bass roll-off) > DAT @ 48 kHz

transfer:
Tascam DA-20MKII > Tascam HD-P2 > CF card > usb 2.0 > pc > WaveLab 5.01b (fades, de-emphasis, resample to 44.1 kHz) > CD Wave v1.96.1 > FLAC v1.2.1 (Level 8)

FLAC tags added with metaflac v1.2.1

transferred by Jason Sobel (jasonsobel@gmail.com)
seeded February 3, 2008

notes:
The original DAT recording was made with pre-emphasis.
The Waves Q10 Paragraphic EQ (v5.0) plug-in was used to de-emphasize the recording.
The original 48 kHz .wav files from the DAT transfer have been archived, and are available upon request.
Big thanks to Eliot Byron for letting me borrow his DATs!

Disc 1 - [63:03]
Set I
01 - [05:32] - Halley's Comet ->
02 - [04:20] - Llama
03 - [07:30] - My Friend My Friend
04 - [02:21] - Poor Heart ->
05 - [11:54] - Stash
06 - [01:43] - The Horse >
07 - [05:16] - Silent in the Morning
08 - [07:07] - Down with Disease
09 - [07:17] - The Mango Song
10 - [04:38] - Cavern
Set II
11 - [05:26] - Sample in a Jar

Disc 2 - [78:15]
Set II continued
01 - [03:38] - Sparkle
02 - [10:10] - Mike's Song >
03 - [02:41] - I Am Hydrogen >
04 - [06:29] - Weekapaug Groove
05 - [10:48] - The Lizards
06 - [06:59] - Julius
07 - [02:09] - Big Ball Jam
08 - [12:50] - Harry Hood
09 - [04:33] - Golgi Apparatus
10 - [03:26] - encore break
11 - [03:34] - Ginseng Sullivan *
12 - [04:32] - Nellie Kane *
13 - [02:05] - Sweet Adeline *
14 - [04:20] - Fire

* performed acoustic and without microphones

----------------------------------------------------------------------------------------------------

SHNtool len mode output:

length expanded size cdr WAVE problems filename
5:31.63 58536620 --- -- ---xx ph1994-05-19d1t01.flac
4:20.04 45873452 --- -- ---xx ph1994-05-19d1t02.flac
7:29.44 79307132 --- -- ---xx ph1994-05-19d1t03.flac
2:21.04 24881852 --- -- ---xx ph1994-05-19d1t04.flac
11:53.56 125904956 --- -- ---xx ph1994-05-19d1t05.flac
1:42.61 18136316 --- -- ---xx ph1994-05-19d1t06.flac
5:16.14 55775372 --- -- ---xx ph1994-05-19d1t07.flac
7:06.67 75304028 --- -- ---xx ph1994-05-19d1t08.flac
7:17.19 77131532 --- -- ---xx ph1994-05-19d1t09.flac
4:37.43 48963980 --- -- ---xx ph1994-05-19d1t10.flac
5:26.23 57560540 --- -- ---xx ph1994-05-19d1t11.flac
3:38.35 38537564 --- -- ---xx ph1994-05-19d2t01.flac
10:10.34 107684012 --- -- ---xx ph1994-05-19d2t02.flac
2:40.54 28351052 --- -- ---xx ph1994-05-19d2t03.flac
6:29.23 68673740 --- -- ---xx ph1994-05-19d2t04.flac
10:48.32 114382508 --- -- ---xx ph1994-05-19d2t05.flac
6:59.09 73932812 --- -- ---xx ph1994-05-19d2t06.flac
2:08.51 22699196 --- -- ---xx ph1994-05-19d2t07.flac
12:50.28 135893900 --- -- ---xx ph1994-05-19d2t08.flac
4:32.41 48077276 --- -- ---xx ph1994-05-19d2t09.flac
3:26.03 36345500 --- -- ---xx ph1994-05-19d2t10.flac
3:34.23 37803740 --- -- ---xx ph1994-05-19d2t11.flac
4:31.57 47938508 --- -- ---xx ph1994-05-19d2t12.flac
2:04.74 22047692 --- -- ---xx ph1994-05-19d2t13.flac
4:19.38 45777020 --- -- ---xx ph1994-05-19d2t14.flac
141:18.00 1495520300 B (totals for 25 files, 0.5452 overall compression ratio)
Checksumsph1994-05-19d1t01.flac:e7f4f7eada897151e36e11bd437247d3<br />
ph1994-05-19d1t02.flac:a815c86e7e9a5c210a26327f462af525<br />
ph1994-05-19d1t03.flac:e0f6ceb2b787b3ccee902b417d1bbde8<br />
ph1994-05-19d1t04.flac:95d44c375b967eb8df81ce824362f71c<br />
ph1994-05-19d1t05.flac:cec74ee2e213ffc3bd026030cd0fc870<br />
ph1994-05-19d1t06.flac:925fd7f248b64d4979d34e78542aeb45<br />
ph1994-05-19d1t07.flac:50030fe56310dad0460ab65f1fdfb90e<br />
ph1994-05-19d1t08.flac:c4bf967fbb9f9c8ce86ef308edbfd4ea<br />
ph1994-05-19d1t09.flac:0419a45809d3b05982044b1fc12402ac<br />
ph1994-05-19d1t10.flac:233e8170550c7e75fcbbc3a53100501d<br />
ph1994-05-19d1t11.flac:f9b1a2785a718937f2960cca8547c07b<br />
ph1994-05-19d2t01.flac:1b89900ad0b005fbb045e46d3050e4ee<br />
ph1994-05-19d2t02.flac:20dc9e2f40ac3bdf99eb134df523a060<br />
ph1994-05-19d2t03.flac:f802903e5055512217a18a3b2603f71f<br />
ph1994-05-19d2t04.flac:e5d305151936791a93326dd5ace62075<br />
ph1994-05-19d2t05.flac:7b91140bbd4dc1a6bc56be356ce79a99<br />
ph1994-05-19d2t06.flac:8c3f3b929febaa7afeba509fbf60f4da<br />
ph1994-05-19d2t07.flac:33d98ad01d15932d5f6f1b718d1f114a<br />
ph1994-05-19d2t08.flac:5042cb1cdc6739cfdab07157cb8ae542<br />
ph1994-05-19d2t09.flac:4a412a16f30c78afa45d37e733bd899c<br />
ph1994-05-19d2t10.flac:3a95417ce724c6fc0c037f6b7e220aa8<br />
ph1994-05-19d2t11.flac:531983e8e35cf3915618e0f6d2d8e6df<br />
ph1994-05-19d2t12.flac:fcbecd4d2a723beb4ebded3a62a213dc<br />
ph1994-05-19d2t13.flac:54a3d370763bf2610745fd02f2caa4bf<br />
ph1994-05-19d2t14.flac:09b1cc1918494140a6f20e6cd61eb3a6<br />
TypePhish
Last seederLast activity 21:05 ago
Size777.57 MB (815337715 Bytes)
Added2013-01-29 14:59:43
Views0
Hits359
Snatched139 times
Upped bygeewiz010
Num files28 files
File List
[Hide list]
filenamesizemd5
ph1994-05-19d1t05.flac72.07 MBN/A
ph1994-05-19d2t08.flac63.71 MBN/A
ph1994-05-19d2t02.flac58.06 MBN/A
ph1994-05-19d2t05.flac54.87 MBN/A
ph1994-05-19d1t08.flac44.51 MBN/A
ph1994-05-19d1t03.flac43.32 MBN/A
ph1994-05-19d1t09.flac41.40 MBN/A
ph1994-05-19d2t06.flac40.10 MBN/A
ph1994-05-19d2t04.flac36.30 MBN/A
ph1994-05-19d1t01.flac32.67 MBN/A
ph1994-05-19d1t11.flac31.82 MBN/A
ph1994-05-19d1t10.flac29.75 MBN/A
ph1994-05-19d1t07.flac29.33 MBN/A
ph1994-05-19d1t02.flac27.74 MBN/A
ph1994-05-19d2t14.flac26.68 MBN/A
ph1994-05-19d2t09.flac26.53 MBN/A
ph1994-05-19d2t01.flac19.62 MBN/A
ph1994-05-19d2t12.flac18.66 MBN/A
ph1994-05-19d2t10.flac14.92 MBN/A
ph1994-05-19d1t04.flac13.90 MBN/A
ph1994-05-19d2t11.flac13.12 MBN/A
ph1994-05-19d2t03.flac11.72 MBN/A
ph1994-05-19d2t07.flac11.44 MBN/A
ph1994-05-19d2t13.flac8.61 MBN/A
ph1994-05-19d1t06.flac6.70 MBN/A
ph1994-05-19.txt3.6 kBN/A
ph1994-05-19.FFP.txt1.4 kBN/A
ph1994-05-19.wav.md51.4 kBN/A
Peers
[See full list]
1 seeder, 0 leechers = 1 peer total

Add a comment

geewiz010 2013-01-29 15:09:46
We'll now take an unscheduled detour for a couple of shows in the Pacific Northwest...by request. I'll up the next night and 5/22 from the same rig - the sound is awesome. And just look at that setlist...Halley's to open, great Stash, Mango, DWD...plus this Mike's Song gets a lot of attention...all this right smack in the middle of a great run of shows that aren't to be missed.
metawhy 2013-01-29 19:40:09
holy shitake!!!

thanks geewiz, a hometown show for me!
BBuckle 2013-01-31 01:21:50
- Thanks !!!
hvoight 2013-02-01 21:27:51
was there thanks!
tomahawkcounty 2013-02-02 03:50:40
Thanks - I did this whole run of shows in the PNW. Always looking for upgrade sources.

Add a comment


http://etree.org : http://db.etree.org : http://forums.etree.org : http://wiki.etree.org : Legal : RSS Feed

Contents designed & maintained by the etree.org volunteers
1998-2014, etree.org, except where noted. All Rights Reserved.
Read our terms of service and privacy guidelines