bt.etree.org
etree.org Community Bittorrent Tracker
ArtistPhish
ShowPHISH - 1994-05-20 Olympia Evergreen State Rec Center - AT4053 *BY REQUEST*
Report this as
non-Trade-Friendly
Email us
Torrentph1994-05-20.89852.4053.flac16.torrent (click to download)
Downloads asph1994-05-20.89852.4053.flac16
Info hash4645f2ba6406590249b5305c047233961c160854
db linkhttp://db.etree.org/shn/89852 | Show | Source
DescriptionPhish
May 20, 1994
Evergreen State College Recreation Center
Olympia, WA

source:
AT 4053 (flat i.e. no bass roll-off) > DAT @ 48 kHz

transfer:
Tascam DA-20MKII > Tascam HD-P2 > CF card > usb 2.0 > pc > WaveLab 5.01b (fades, de-emphasis) > r8brain v1.9 (resample to 44.1 kHz) > CD Wave v1.96.1 > FLAC v1.2.1 (Level 8)

FLAC tags added with metaflac v1.2.1

transferred by Jason Sobel (jasonsobel@gmail.com)
seeded February 3, 2008

notes:
The original DAT recording was made with pre-emphasis.
The Waves Q10 Paragraphic EQ (v5.0) plug-in was used to de-emphasize the recording.
The original 48 kHz .wav files from the DAT transfer have been archived, and are available upon request.
Big thanks to Eliot Byron for letting me borrow his DATs!

Disc 1 - [67:54]
Set I
01 - [00:58] - intro
02 - [05:27] - Fee
03 - [09:53] - Maze
04 - [06:04] - If I Could
05 - [09:54] - It's Ice
06 - [10:54] - Bathtub Gin
07 - [05:32] - Fast Enough for You
08 - [08:29] - Scent of a Mule
09 - [02:27] - Dog Faced Boy *
10 - [01:29] - Carolina *
11 - [06:46] - AC/DC Bag

Disc 2 - [68:53]
Set II
01 - [04:30] - 2001 >
02 - [12:08] - Run Like an Antelope
03 - [06:04] - Weigh
04 - [03:15] - Axilla (Part II)
05 - [06:36] - Wolfman's Brother
06 - [05:54] - Rift
07 - [21:42] - You Enjoy Myself
08 - [01:49] - encore break
09 - [06:54] - Chalk Dust Torture

* performed acoustic and without microphones

----------------------------------------------------------------------------------------------------

SHNtool len mode output:

length expanded size cdr WAVE problems filename
0:57.38 10144220 --- -- ---xx ph1994-05-20d1t01.flac
5:27.29 57751052 --- -- ---xx ph1994-05-20d1t02.flac
9:52.72 104598188 --- -- ---xx ph1994-05-20d1t03.flac
6:03.71 64200236 --- -- ---xx ph1994-05-20d1t04.flac
9:54.30 104852204 --- -- ---xx ph1994-05-20d1t05.flac
10:54.26 115426796 --- -- ---xx ph1994-05-20d1t06.flac
5:31.63 58536620 --- -- ---xx ph1994-05-20d1t07.flac
8:28.67 89768828 --- -- ---xx ph1994-05-20d1t08.flac
2:27.07 25947308 --- -- ---xx ph1994-05-20d1t09.flac
1:29.24 15756092 --- -- ---xx ph1994-05-20d1t10.flac
6:46.23 71672540 --- -- ---xx ph1994-05-20d1t11.flac
4:29.70 47616284 --- -- ---xx ph1994-05-20d2t01.flac
12:07.55 128372204 --- -- ---xx ph1994-05-20d2t02.flac
6:04.19 64254332 --- -- ---xx ph1994-05-20d2t03.flac
3:15.24 34454492 --- -- ---xx ph1994-05-20d2t04.flac
6:36.31 69927356 --- -- ---xx ph1994-05-20d2t05.flac
5:54.12 62473868 --- -- ---xx ph1994-05-20d2t06.flac
21:42.23 229726940 --- -- ---xx ph1994-05-20d2t07.flac
1:49.30 19298204 --- -- ---xx ph1994-05-20d2t08.flac
6:53.62 72999068 --- -- ---xx ph1994-05-20d2t09.flac
136:47.26 1447776832 B (totals for 20 files, 0.5316 overall compression ratio)
Checksumsph1994-05-20d1t01.flac:5577b186d56c35a5fd74b705d0651e12
ph1994-05-20d1t02.flac:e28241cf4ceda970d054e403a78da930
ph1994-05-20d1t03.flac:bfa57dea6df6bdc60abcdf22c25ca0ff
ph1994-05-20d1t04.flac:b383782990b3e0031ddbe854274ed393
ph1994-05-20d1t05.flac:6f82e300a0ffcf174270aa284bbd17dd
ph1994-05-20d1t06.flac:34dc4fc04263be2973971da56cd49b9f
ph1994-05-20d1t07.flac:dd475f7c2ee1948f1b75d9fc2b13801a
ph1994-05-20d1t08.flac:d81d521f2e4d870de1f3b9b350a53af0
ph1994-05-20d1t09.flac:8acad0d28e6a5f3cbd8f82eb3b597d59
ph1994-05-20d1t10.flac:767f850c086e21619904b23143790c58
ph1994-05-20d1t11.flac:e85071c146947758701f3e15262848d2
ph1994-05-20d2t01.flac:1ac511b940498bcb46c356b1874dc321
ph1994-05-20d2t02.flac:6d021d194c9898aa0fe20503952cafcf
ph1994-05-20d2t03.flac:bac4c5171d9f70c1eb98290c0e6a015d
ph1994-05-20d2t04.flac:54dc62bb72f7978bb9d42ae3270d67bd
ph1994-05-20d2t05.flac:dc230013f6af42860c667d55d007ddba
ph1994-05-20d2t06.flac:c6e2dfb0fccda178821299658797faf7
ph1994-05-20d2t07.flac:281d1afd69efa327d2b516acbd382b90
ph1994-05-20d2t08.flac:733631566dc289fe7b4d0d880a920f0f
ph1994-05-20d2t09.flac:193577947070a7c58a503197d79d19be
TypePhish
Last seederLast activity 62 days, 05:11:38 ago
Size734.04 MB (769701512 Bytes)
Added2013-01-29 21:20:21
Views0
Hits312
Snatched117 times
Upped bygeewiz010
Num files
[See full list]
23 files
Peers
[See full list]
0 seeders, 1 leecher = 1 peer total

Add a comment

metawhy 2013-01-29 22:07:05
thanks for this geewhiz!

I like hearing all these early WOLFMANS
BBuckle 2013-01-31 18:42:23
- Hey, Thanks man !!!!

Add a comment


http://etree.org : http://db.etree.org : http://forums.etree.org : http://wiki.etree.org : Legal : RSS Feed

Contents designed & maintained by the etree.org volunteers
1998-2014, etree.org, except where noted. All Rights Reserved.
Read our terms of service and privacy guidelines