bt.etree.org
etree.org Community Bittorrent Tracker
ArtistWidespread Panic
ShowWidespread Panic Hard Rock Hotel On The Beach Punta Cana, Dominican Republic 1/29/2013 (Schoeps CCM4V'S)
Report this as
non-Trade-Friendly
Email us
Torrentwsp2013-01-29.flac16.torrent (click to download)
Downloads aswsp2013-01-29.flac16
Info hashb7565b520473bbf200008d6a9c560742ec18cbd4
db linkhttp://db.etree.org/shn/123650 | Show | Source
DescriptionWidespread Panic
Panic en la Playa II
Hard Rock Hotel
On The Beach
Punta Cana, Dominican Republican
1/29/2013

Source: Schoeps CCM4V'S(din)>Lunatec V2>Benchmark AD2K>
Sound Devices 722 (24/48)
BFOB/DFC/KFC/ZFC/AARP Inside Of Soundboard Area, 7' High
DSP: Sound Devices 722>Sound Forge 9.0>CD Wave>flac(16)
Recorded By: Z-Man
Seeded By: Z-Man
Ztreamed By Dany and Z-Man, A Team Dirty South Production

Disc I 1st Set

01 Greeting/Tuning
02 Ride Me High >
03 Ribs And Whiskey >
04 That Thang >
05 Stop Breakin' Down
06 Aunt Avis >
07 You Should Be Glad >
08 Ophelia >
09 The Shape I'm In >
10 Worry

Disc II 2nd Set

01 Tuning
02 Chainsaw City >
03 Chilly Water >
04 Drum Solo >
05 Bass And Drums >
06 Chilly Water >
07 Jam >
08 Gimme >
09 Hatfield >
10 Pigeons >
11 I Walk On Guilded Splinters >

Disc II 2nd Set Con't

01 Drum Solo >
02 Bass And Drums >
03 Coconut >
04 All Time Low
Encore:
05 Drivin' Song >
06 Can't Find My Way Home >
07 Drivin' Song

Flac Fingerprint

wsp2013-01-29d01t01.flac:3d4a0ffa6a82149af7a1c169a729b964
wsp2013-01-29d01t02.flac:78de8413374789ca4b241d6425cce8f6
wsp2013-01-29d01t03.flac:34d383142db17f57092218af98a7f8b5
wsp2013-01-29d01t04.flac:97f3a2d5e60696eee33dd401235fbc4e
wsp2013-01-29d01t05.flac:4c39c4756c53e00c45ac6e2716fbed87
wsp2013-01-29d01t06.flac:1353decebe9cde7dc865d89f5eb2f506
wsp2013-01-29d01t07.flac:3024a41771788932e4f37f32c6b21067
wsp2013-01-29d01t08.flac:0b3f0c58aa45d7686e2e98335e0653c5
wsp2013-01-29d01t09.flac:42ad9a227fcf63be8778a2046ed87574
wsp2013-01-29d01t10.flac:1437bef2f179f291477c5174f460cbb2
wsp2013-01-29d02t01.flac:45db66d92117e8b54a884b733b713cfa
wsp2013-01-29d02t02.flac:05c67ad84058a0dc459a5da47b034804
wsp2013-01-29d02t03.flac:c53025b35d6cd9a3bc6b93a37fdba840
wsp2013-01-29d02t04.flac:f423f92704bd6acd911b74b2237416ad
wsp2013-01-29d02t05.flac:48cace224f06b397652219a47a4d3ce3
wsp2013-01-29d02t06.flac:7ccde8a516131775ee3175a377d5ff1a
wsp2013-01-29d02t07.flac:6bdc81815119974fae847ede9d3d35de
wsp2013-01-29d02t08.flac:ac2df4445414b5aeef7ba5942bc984bd
wsp2013-01-29d02t09.flac:8fa4c6a6f7570464a138b1696ee96d58
wsp2013-01-29d02t10.flac:046119ad25cb53234a0de3f4724f9f66
wsp2013-01-29d02t11.flac:82950de9b3567a568699af7cdbbfac37
wsp2013-01-29d03t01.flac:22929e3162851560e7b8769bb9d27bea
wsp2013-01-29d03t02.flac:a4c4724fe643c1653eca5ea25390e511
wsp2013-01-29d03t03.flac:307a042298f863fab447ae939e9ce33a
wsp2013-01-29d03t04.flac:e08a973ef2323d6f1256fe7e3bbb5cb7
wsp2013-01-29d03t05.flac:389eae4af789db7001afae1680c86990
wsp2013-01-29d03t06.flac:4c07247a351f8d65a0a47dc6aab723cf
wsp2013-01-29d03t07.flac:0e516733225799023209a3e3b0639e2a

Shntool

length expanded size cdr WAVE problems fmt ratio filename
0:19.41 3448076 B --- -- ---xx flac 0.3466 wsp2013-01-29d01t01.flac
10:08.56 107382956 B --- -- ---xx flac 0.4458 wsp2013-01-29d01t02.flac
7:39.52 81089948 B --- -- ---xx flac 0.4548 wsp2013-01-29d01t03.flac
8:14.36 87226316 B --- -- ---xx flac 0.4556 wsp2013-01-29d01t04.flac
7:53.27 83500748 B --- -- ---xx flac 0.4293 wsp2013-01-29d01t05.flac
3:36.47 38212988 B --- -- ---xx flac 0.4112 wsp2013-01-29d01t06.flac
14:25.40 152680124 B --- -- ---xx flac 0.4673 wsp2013-01-29d01t07.flac
3:39.51 38751596 B --- -- ---xx flac 0.4482 wsp2013-01-29d01t08.flac
4:04.66 43196876 B --- -- ---xx flac 0.4652 wsp2013-01-29d01t09.flac
7:16.17 76950428 B --- -- ---xx flac 0.4879 wsp2013-01-29d01t10.flac
0:32.29 5713052 B --- -- ---xx flac 0.3251 wsp2013-01-29d02t01.flac
8:42.52 92203148 B --- -- ---xx flac 0.4784 wsp2013-01-29d02t02.flac
4:19.41 45784076 B --- -- ---xx flac 0.4930 wsp2013-01-29d02t03.flac
0:59.41 10504076 B --- -- ---xx flac 0.4647 wsp2013-01-29d02t04.flac
1:56.70 20627084 B --- -- ---xx flac 0.4799 wsp2013-01-29d02t05.flac
6:06.47 64672988 B --- -- ---xx flac 0.4895 wsp2013-01-29d02t06.flac
7:07.39 75414572 B --- -- ---xx flac 0.3645 wsp2013-01-29d02t07.flac
5:49.06 61577756 B --- -- ---xx flac 0.3841 wsp2013-01-29d02t08.flac
15:05.29 159710252 B --- -- ---xx flac 0.4187 wsp2013-01-29d02t09.flac
9:04.65 96114524 B --- -- ---xx flac 0.4574 wsp2013-01-29d02t10.flac
9:28.56 100326956 B --- -- ---xx flac 0.4602 wsp2013-01-29d02t11.flac
8:32.42 90415628 B --- -- ---xx flac 0.3930 wsp2013-01-29d03t01.flac
4:16.52 45280748 B --- -- ---xx flac 0.4080 wsp2013-01-29d03t02.flac
8:06.44 85833932 B --- -- ---xx flac 0.4613 wsp2013-01-29d03t03.flac
4:15.66 45137276 B --- -- ---xx flac 0.4784 wsp2013-01-29d03t04.flac
4:47.40 50720924 B --- -- ---xx flac 0.4186 wsp2013-01-29d03t05.flac
5:49.10 61587164 B --- -- ---xx flac 0.4376 wsp2013-01-29d03t06.flac
3:27.61 36658316 B --- -- ---xx flac 0.4183 wsp2013-01-29d03t07.flac
175:48.23 1860722528 B 0.4436 (28 files)


















Checksumswsp2013-01-29d01t01.flac:3d4a0ffa6a82149af7a1c169a729b964
wsp2013-01-29d01t02.flac:78de8413374789ca4b241d6425cce8f6
wsp2013-01-29d01t03.flac:34d383142db17f57092218af98a7f8b5
wsp2013-01-29d01t04.flac:97f3a2d5e60696eee33dd401235fbc4e
wsp2013-01-29d01t05.flac:4c39c4756c53e00c45ac6e2716fbed87
wsp2013-01-29d01t06.flac:1353decebe9cde7dc865d89f5eb2f506
wsp2013-01-29d01t07.flac:3024a41771788932e4f37f32c6b21067
wsp2013-01-29d01t08.flac:0b3f0c58aa45d7686e2e98335e0653c5
wsp2013-01-29d01t09.flac:42ad9a227fcf63be8778a2046ed87574
wsp2013-01-29d01t10.flac:1437bef2f179f291477c5174f460cbb2
wsp2013-01-29d02t01.flac:45db66d92117e8b54a884b733b713cfa
wsp2013-01-29d02t02.flac:05c67ad84058a0dc459a5da47b034804
wsp2013-01-29d02t03.flac:c53025b35d6cd9a3bc6b93a37fdba840
wsp2013-01-29d02t04.flac:f423f92704bd6acd911b74b2237416ad
wsp2013-01-29d02t05.flac:48cace224f06b397652219a47a4d3ce3
wsp2013-01-29d02t06.flac:7ccde8a516131775ee3175a377d5ff1a
wsp2013-01-29d02t07.flac:6bdc81815119974fae847ede9d3d35de
wsp2013-01-29d02t08.flac:ac2df4445414b5aeef7ba5942bc984bd
wsp2013-01-29d02t09.flac:8fa4c6a6f7570464a138b1696ee96d58
wsp2013-01-29d02t10.flac:046119ad25cb53234a0de3f4724f9f66
wsp2013-01-29d02t11.flac:82950de9b3567a568699af7cdbbfac37
wsp2013-01-29d03t01.flac:22929e3162851560e7b8769bb9d27bea
wsp2013-01-29d03t02.flac:a4c4724fe643c1653eca5ea25390e511
wsp2013-01-29d03t03.flac:307a042298f863fab447ae939e9ce33a
wsp2013-01-29d03t04.flac:e08a973ef2323d6f1256fe7e3bbb5cb7
wsp2013-01-29d03t05.flac:389eae4af789db7001afae1680c86990
wsp2013-01-29d03t06.flac:4c07247a351f8d65a0a47dc6aab723cf
wsp2013-01-29d03t07.flac:0e516733225799023209a3e3b0639e2a
TypeWidespread Panic
Last seederLast activity 10:27 ago
Size787.19 MB (825433492 Bytes)
Added2013-01-30 01:24:50
Views0
Hits1148
Snatched660 times
Upped byzmanatl
Num files
[See full list]
29 files
Peers
[See full list]
2 seeders, 0 leechers = 2 peers total

Add a comment

loustults 2013-01-30 02:17:44
Thanks Z!
Tomahawk Kid 2013-01-30 03:12:26
Thank you very much!
Tom_of_Mule 2013-01-30 09:16:24
Thanks Z !
Tom
Blues_Ken 2013-01-30 11:59:56
Thank you Zman
DATman714 2013-01-30 12:57:05
Thx 4 the up Z & all the more so for your streaming of the show(s) - even if Dominican Wifi leaves something to be desired, LOL. Good score on getting the Sbd feed for the stream, you are a taper of epic magnitude!!! Also Mad Props to TDS of course!

Namaste,
E
pimphand 2013-01-30 18:31:16
@DATman714 It isn't the wifi that is poor...it is that everyone keeps pulling out their phones to take pictures, videos. This degrades the signal.

BostonDPA4023 2013-01-30 19:43:28
cellphones in close proximity to audio recording is no good.
I've lost signal a couple times due to txting and taking videos with smartphone. I've learned my lesson. Turn off the phone when I hit record.

Add a comment


http://etree.org : http://db.etree.org : http://forums.etree.org : http://wiki.etree.org : Legal : RSS Feed

Contents designed & maintained by the etree.org volunteers
1998-2014, etree.org, except where noted. All Rights Reserved.
Read our terms of service and privacy guidelines