bt.etree.org
etree.org Community Bittorrent Tracker
ArtistWidespread Panic
ShowWidespread Panic Hard Rock Hotel On The Beach Punta Cana, Dominican Republic 1/30/2013 (Schoeps CCM4V'S)
Report this as
non-Trade-Friendly
Email us
Torrentwsp2013-01-30.flac16.torrent (click to download)
Downloads aswsp2013-01-30.flac16
Info hash01d1341f1d8407ec78762406a06ce15f6008cf3d
db linkhttp://db.etree.org/shn/123667 | Show | Source
DescriptionWidespread Panic
Panic en la Playa II
Hard Rock Hotel
On The Beach
Punta Cana, Dominican Republican
1/30/2013

Source: Schoeps CCM4V'S(din)>Lunatec V2>Benchmark AD2K>
Sound Devices 722 (24/48)
BFOB/DFC/KFC/ZFC/AARP Inside Of Soundboard Area, 7' High
DSP: Sound Devices 722>Sound Forge 9.0>CD Wave>flac(16)
Recorded By: Z-Man
Seeded By: Z-Man
Ztreamed By Dany and Z-Man, A Team Dirty South Production

Disc I 1st Set

01 Greeting/Tuning
02 Disco >
03 *Greta >
04 Jack >
05 Radio Child >
06 Travelin' Light
07 C Brown >
08 Jam >
09 Rock
10 Heroes >
11 Impossible >
12 Action Man

Disc II 2nd Set

01 Tuning
02 City Of Dreams
03 Happy >
04 Jam >
05 Goin' Out West >
06 Postcard
07 B Of D >
08 Machine >
09 Barstools And Dreamers >
10 Thank You For Lettin' Me, Be Mice Elf >
11 Barstools And Dreamers

Disc III 2nd Set Con't

01 Superstition >
02 Come Together Jam >
03 Arlene >
04 Fixin' To Die >
05 Papa's Home
Encore:
06 JB Banter
07 End Of The Show >
08 Pilgrims >
09 Big Woolly Mammoth >
10 Lawyers, Guns, And Money
11 Gimme Some Lovin' Outro

* With Third Stone From The Sun Jam

Flac Fingerprint

wsp2013-01-30d01t01.flac:a49417ef866ea1485e3db824eea9c875
wsp2013-01-30d01t02.flac:a21cc49d72b069807817307fd26636cc
wsp2013-01-30d01t03.flac:6c5174ab9d50305b5959f73bb6898583
wsp2013-01-30d01t04.flac:2e0896cdb74876821cf853394a77fef4
wsp2013-01-30d01t05.flac:4f65a2c2cb6a8ce9e831e0cc7002bbb8
wsp2013-01-30d01t06.flac:d7c0adb65cec522ff9d261780a80eaf7
wsp2013-01-30d01t07.flac:24d685554484b4f46d1863ed56175cde
wsp2013-01-30d01t08.flac:504dee307f72c60881ef9c765feac81b
wsp2013-01-30d01t09.flac:25fb779c43d0dfae6547e4129e2f2efe
wsp2013-01-30d01t10.flac:0d622c489d87ab672723c03c83e03518
wsp2013-01-30d01t11.flac:16cd763af54ccd8d8e6c7ee9a7314984
wsp2013-01-30d01t12.flac:641a5e320e295734d83882b8d74f8f6a
wsp2013-01-30d02t01.flac:8f9314fc87f7de198288139535323f87
wsp2013-01-30d02t02.flac:152cc3b87eb574abc2ab0400d5bd5c4b
wsp2013-01-30d02t03.flac:b2251b59817295882d3859673025fd24
wsp2013-01-30d02t04.flac:011c3e7293e219695b268143f0ebf9c7
wsp2013-01-30d02t05.flac:b54da5a2a12c094970040e491af0efea
wsp2013-01-30d02t06.flac:0348d0baf97ee5a6cc0c20ad949fdc0c
wsp2013-01-30d02t07.flac:8de93b03165d6b45162450913cacefa0
wsp2013-01-30d02t08.flac:9f3bb2e75f040ebd9dda863e1c91f641
wsp2013-01-30d02t09.flac:a3924ba436a33df5411c52a5a82b8354
wsp2013-01-30d02t10.flac:917effd3b04da00347856c96acf86a83
wsp2013-01-30d02t11.flac:e465ab5f1a28166786534f4c2cf6eca2
wsp2013-01-30d03t01.flac:bfe8a633fecdc29e17875e2ccaee4298
wsp2013-01-30d03t02.flac:922385818a6379c1b4896fd90544a0bf
wsp2013-01-30d03t03.flac:c19881286ca7d0489133f3d4b2f4f6b1
wsp2013-01-30d03t04.flac:44eeb56d5ca9bbf4c5429c12a814f64b
wsp2013-01-30d03t05.flac:8d32a2f98650465675a39aa952bd9d78
wsp2013-01-30d03t06.flac:e510292bf64f0f7da0804bd866c5eeda
wsp2013-01-30d03t07.flac:ad53d33d31f10c45918f4dd7c5795c2e
wsp2013-01-30d03t08.flac:605e6def6e92cd425ef93994190a32b6
wsp2013-01-30d03t09.flac:6472b48d77b1db38f4226a7bf896c288
wsp2013-01-30d03t10.flac:f7c7fb65495b995101ba4e5802ba20ed
wsp2013-01-30d03t11.flac:f0a418ac07f37b4eac4157903fa0f392

Shntool

length expanded size cdr WAVE problems fmt ratio filename
0:25.40 4504124 B --- -- ---xx flac 0.3162 wsp2013-01-30d01t01.flac
5:36.50 59388044 B --- -- ---xx flac 0.4678 wsp2013-01-30d01t02.flac
11:13.38 118806620 B --- -- ---xx flac 0.4639 wsp2013-01-30d01t03.flac
6:48.35 72053564 B --- -- ---xx flac 0.4667 wsp2013-01-30d01t04.flac
10:38.09 112564412 B --- -- ---xx flac 0.4712 wsp2013-01-30d01t05.flac
7:04.73 74965340 B --- -- ---xx flac 0.4298 wsp2013-01-30d01t06.flac
8:44.43 92534780 B --- -- ---xx flac 0.4208 wsp2013-01-30d01t07.flac
3:45.72 39859388 B --- -- ---xx flac 0.3976 wsp2013-01-30d01t08.flac
7:52.70 83425484 B --- -- ---xx flac 0.4365 wsp2013-01-30d01t09.flac
5:16.32 55817708 B --- -- ---xx flac 0.4725 wsp2013-01-30d01t10.flac
6:23.01 67563596 B --- -- ---xx flac 0.4770 wsp2013-01-30d01t11.flac
5:25.18 57372380 B --- -- ---xx flac 0.4893 wsp2013-01-30d01t12.flac
1:24.19 14862332 B --- -- ---xx flac 0.2994 wsp2013-01-30d02t01.flac
6:37.19 70075532 B --- -- ---xx flac 0.3850 wsp2013-01-30d02t02.flac
8:05.44 85657532 B --- -- ---xx flac 0.4088 wsp2013-01-30d02t03.flac
2:33.33 27066860 B --- -- ---xx flac 0.4217 wsp2013-01-30d02t04.flac
6:11.65 65597324 B --- -- ---xx flac 0.4777 wsp2013-01-30d02t05.flac
4:58.52 52689548 B --- -- ---xx flac 0.4802 wsp2013-01-30d02t06.flac
4:40.60 49533164 B --- -- ---xx flac 0.4469 wsp2013-01-30d02t07.flac
3:12.06 33882956 B --- -- ---xx flac 0.4818 wsp2013-01-30d02t08.flac
10:59.07 116264108 B --- -- ---xx flac 0.4521 wsp2013-01-30d02t09.flac
2:06.09 22247612 B --- -- ---xx flac 0.4518 wsp2013-01-30d02t10.flac
1:39.02 17468348 B --- -- ---xx flac 0.4490 wsp2013-01-30d02t11.flac
7:29.71 79370636 B --- -- ---xx flac 0.4519 wsp2013-01-30d03t01.flac
3:20.42 35378828 B --- -- ---xx flac 0.4817 wsp2013-01-30d03t02.flac
9:40.44 102415532 B --- -- ---xx flac 0.4599 wsp2013-01-30d03t03.flac
8:51.69 93830732 B --- -- ---xx flac 0.4486 wsp2013-01-30d03t04.flac
10:10.03 107611100 B --- -- ---xx flac 0.4480 wsp2013-01-30d03t05.flac
0:36.68 6510380 B --- -- ---xx flac 0.3190 wsp2013-01-30d03t06.flac
4:46.11 50476316 B --- -- ---xx flac 0.3867 wsp2013-01-30d03t07.flac
7:33.36 79993916 B --- -- ---xx flac 0.4259 wsp2013-01-30d03t08.flac
7:13.26 76442396 B --- -- ---xx flac 0.4385 wsp2013-01-30d03t09.flac
4:51.53 51457100 B --- -- ---xx flac 0.4623 wsp2013-01-30d03t10.flac
3:34.58 37886060 B --- -- ---xx flac 0.3977 wsp2013-01-30d03t11.flac
199:53.03 2115573752 B 0.4457 (34 files)
















Checksumswsp2013-01-30d01t01.flac:a49417ef866ea1485e3db824eea9c875<br />
wsp2013-01-30d01t02.flac:a21cc49d72b069807817307fd26636cc<br />
wsp2013-01-30d01t03.flac:6c5174ab9d50305b5959f73bb6898583<br />
wsp2013-01-30d01t04.flac:2e0896cdb74876821cf853394a77fef4<br />
wsp2013-01-30d01t05.flac:4f65a2c2cb6a8ce9e831e0cc7002bbb8<br />
wsp2013-01-30d01t06.flac:d7c0adb65cec522ff9d261780a80eaf7<br />
wsp2013-01-30d01t07.flac:24d685554484b4f46d1863ed56175cde<br />
wsp2013-01-30d01t08.flac:504dee307f72c60881ef9c765feac81b<br />
wsp2013-01-30d01t09.flac:25fb779c43d0dfae6547e4129e2f2efe<br />
wsp2013-01-30d01t10.flac:0d622c489d87ab672723c03c83e03518<br />
wsp2013-01-30d01t11.flac:16cd763af54ccd8d8e6c7ee9a7314984<br />
wsp2013-01-30d01t12.flac:641a5e320e295734d83882b8d74f8f6a<br />
wsp2013-01-30d02t01.flac:8f9314fc87f7de198288139535323f87<br />
wsp2013-01-30d02t02.flac:152cc3b87eb574abc2ab0400d5bd5c4b<br />
wsp2013-01-30d02t03.flac:b2251b59817295882d3859673025fd24<br />
wsp2013-01-30d02t04.flac:011c3e7293e219695b268143f0ebf9c7<br />
wsp2013-01-30d02t05.flac:b54da5a2a12c094970040e491af0efea<br />
wsp2013-01-30d02t06.flac:0348d0baf97ee5a6cc0c20ad949fdc0c<br />
wsp2013-01-30d02t07.flac:8de93b03165d6b45162450913cacefa0<br />
wsp2013-01-30d02t08.flac:9f3bb2e75f040ebd9dda863e1c91f641<br />
wsp2013-01-30d02t09.flac:a3924ba436a33df5411c52a5a82b8354<br />
wsp2013-01-30d02t10.flac:917effd3b04da00347856c96acf86a83<br />
wsp2013-01-30d02t11.flac:e465ab5f1a28166786534f4c2cf6eca2<br />
wsp2013-01-30d03t01.flac:bfe8a633fecdc29e17875e2ccaee4298<br />
wsp2013-01-30d03t02.flac:922385818a6379c1b4896fd90544a0bf<br />
wsp2013-01-30d03t03.flac:c19881286ca7d0489133f3d4b2f4f6b1<br />
wsp2013-01-30d03t04.flac:44eeb56d5ca9bbf4c5429c12a814f64b<br />
wsp2013-01-30d03t05.flac:8d32a2f98650465675a39aa952bd9d78<br />
wsp2013-01-30d03t06.flac:e510292bf64f0f7da0804bd866c5eeda<br />
wsp2013-01-30d03t07.flac:ad53d33d31f10c45918f4dd7c5795c2e<br />
wsp2013-01-30d03t08.flac:605e6def6e92cd425ef93994190a32b6<br />
wsp2013-01-30d03t09.flac:6472b48d77b1db38f4226a7bf896c288<br />
wsp2013-01-30d03t10.flac:f7c7fb65495b995101ba4e5802ba20ed<br />
wsp2013-01-30d03t11.flac:f0a418ac07f37b4eac4157903fa0f392
TypeWidespread Panic
Last seederLast activity 20:17 ago
Size899.19 MB (942872960 Bytes)
Added2013-01-31 02:12:04
Views0
Hits1111
Snatched527 times
Upped byzmanatl
Num files35 files
File List
[Hide list]
filenamesizemd5
wsp2013-01-30d01t03.flac52.56 MBN/A
wsp2013-01-30d01t05.flac50.58 MBN/A
wsp2013-01-30d02t09.flac50.13 MBN/A
wsp2013-01-30d03t05.flac45.97 MBN/A
wsp2013-01-30d03t03.flac44.91 MBN/A
wsp2013-01-30d03t04.flac40.14 MBN/A
wsp2013-01-30d01t07.flac37.14 MBN/A
wsp2013-01-30d01t09.flac34.73 MBN/A
wsp2013-01-30d03t01.flac34.21 MBN/A
wsp2013-01-30d02t03.flac33.40 MBN/A
wsp2013-01-30d03t08.flac32.49 MBN/A
wsp2013-01-30d01t04.flac32.07 MBN/A
wsp2013-01-30d03t09.flac31.97 MBN/A
wsp2013-01-30d01t11.flac30.74 MBN/A
wsp2013-01-30d01t06.flac30.73 MBN/A
wsp2013-01-30d02t05.flac29.89 MBN/A
wsp2013-01-30d01t12.flac26.77 MBN/A
wsp2013-01-30d01t02.flac26.49 MBN/A
wsp2013-01-30d02t02.flac25.73 MBN/A
wsp2013-01-30d01t10.flac25.15 MBN/A
wsp2013-01-30d02t06.flac24.13 MBN/A
wsp2013-01-30d03t10.flac22.69 MBN/A
wsp2013-01-30d02t07.flac21.11 MBN/A
wsp2013-01-30d03t07.flac18.61 MBN/A
wsp2013-01-30d03t02.flac16.25 MBN/A
wsp2013-01-30d02t08.flac15.57 MBN/A
wsp2013-01-30d01t08.flac15.11 MBN/A
wsp2013-01-30d03t11.flac14.37 MBN/A
wsp2013-01-30d02t04.flac10.89 MBN/A
wsp2013-01-30d02t10.flac9.59 MBN/A
wsp2013-01-30d02t11.flac7.48 MBN/A
wsp2013-01-30d02t01.flac4.24 MBN/A
wsp2013-01-30d03t06.flac1.98 MBN/A
wsp2013-01-30d01t01.flac1.36 MBN/A
wsp2013--01-30.textfile.txt6.4 kBN/A
Peers
[See full list]
1 seeder, 0 leechers = 1 peer total

Add a comment

acereraser 2013-01-31 02:46:40
Thanks for all of this run, and know that I came home from work today and snowblowed my driveway open.
Tomahawk Kid 2013-01-31 03:37:56
Thank you kindly!
Tom_of_Mule 2013-01-31 09:13:35
Thanks Z !
Tom
Blues_Ken 2013-01-31 18:08:55
Thank you Zman
Hipster7929 2013-01-31 20:19:05
thanks z!
loustults 2013-02-01 00:21:41
Did I hear a "no wifi" call from the stage during Mammoth?
Thanks Z!
rainmaker70 2013-02-02 14:39:47
Thank you Mr. Z!!
Myco69 2013-02-03 21:19:52
Thanks for making it happen Z! As always!

Add a comment


http://etree.org : http://db.etree.org : http://forums.etree.org : http://wiki.etree.org : Legal : RSS Feed

Contents designed & maintained by the etree.org volunteers
1998-2014, etree.org, except where noted. All Rights Reserved.
Read our terms of service and privacy guidelines