bt.etree.org
etree.org Community Bittorrent Tracker
ArtistPhish
ShowPHISH - 1994-05-22 Vancouver Vogue Theatre - AT4053 *BY REQUEST*
Report this as
non-Trade-Friendly
Email us
Torrentph1994-05-22.89882.4053.flac16.torrent (click to download)
Downloads asph1994-05-22.89882.4053.flac16
Info hash752b6c1f66f2713e1e16d979a733a0cdc1d2b3c6
db linkhttp://db.etree.org/shn/89882 | Show | Source
DescriptionPhish
May 22, 1994
The Vogue Theatre
Vancouver, BC

source:
AT 4053 (flat i.e. no bass roll-off) > DAT @ 48 kHz
(right of soundboard)

transfer:
Tascam DA-20MKII > Tascam HD-P2 > CF card > usb 2.0 > pc > WaveLab 5.01b (fades, de-emphasis) > r8brain v1.9 (resample to 44.1 kHz) > CD Wave v1.96.1 > FLAC v1.2.1 (Level 8)

FLAC tags added with metaflac v1.2.1

transferred by Jason Sobel (jasonsobel@gmail.com)
seeded February 5, 2008

notes:
The original DAT recording was made with pre-emphasis.
The Waves Q10 Paragraphic EQ (v5.0) plug-in was used to de-emphasize the recording.
The original 48 kHz .wav files from the DAT transfer have been archived, and are available upon request.
Big thanks to Eliot Byron for letting me borrow his DATs!

Disc 1 - [69:43]
Set I
01 - [02:37] - Demand ->
02 - [03:44] - The Sloth
03 - [13:43] - The Divided Sky
04 - [06:19] - Glide
05 - [03:11] - Peaches en Regalia
06 - [11:18] - Split Open and Melt
07 - [15:25] - Fluffhead
08 - [02:28] - My Sweet One *
09 - [04:43] - Ginseng Sullivan *
10 - [02:53] - Dog Faced Boy *
11 - [03:22] - Axilla (Part II)

Disc 2 - [79:24]
Set II
01 - [07:52] - Down with Disease
02 - [03:52] - Bouncing Around the Room
03 - [09:10] - It's Ice
04 - [09:19] - McGrupp and the Watchful Hosemasters ->
05 - [14:03] - Tweezer ->
06 - [08:08] - Lifeboy
07 - [05:46] - Rift
08 - [09:30] - Slave to the Traffic Light
09 - [03:00] - Tweezer Reprise
10 - [01:51] - encore break
11 - [06:01] - Sleeping Monkey
12 - [00:53] - outro

* performed acoustic and without mics

----------------------------------------------------------------------------------------------------

SHNtool len mode output:

length expanded size cdr WAVE problems filename
2:36.57 27652508 --- -- ---xx ph1994-05-22d1t01.flac
3:44.03 39520700 --- -- ---xx ph1994-05-22d1t02.flac
13:43.02 145181948 --- -- ---xx ph1994-05-22d1t03.flac
6:18.73 66850940 --- -- ---xx ph1994-05-22d1t04.flac
3:10.62 33661868 --- -- ---xx ph1994-05-22d1t05.flac
11:17.72 119592188 --- -- ---xx ph1994-05-22d1t06.flac
15:25.20 163217084 --- -- ---xx ph1994-05-22d1t07.flac
2:28.29 26175452 --- -- ---xx ph1994-05-22d1t08.flac
4:42.44 49848332 --- -- ---xx ph1994-05-22d1t09.flac
2:52.53 30465500 --- -- ---xx ph1994-05-22d1t10.flac
3:22.35 35715164 --- -- ---xx ph1994-05-22d1t11.flac
7:52.19 83305532 --- -- ---xx ph1994-05-22d2t01.flac
3:52.13 40955420 --- -- ---xx ph1994-05-22d2t02.flac
9:09.71 97010636 --- -- ---xx ph1994-05-22d2t03.flac
9:18.51 98551196 --- -- ---xx ph1994-05-22d2t04.flac
14:02.48 148641740 --- -- ---xx ph1994-05-22d2t05.flac
8:08.01 86085596 --- -- ---xx ph1994-05-22d2t06.flac
5:46.12 61062668 --- -- ---xx ph1994-05-22d2t07.flac
9:29.74 100545692 --- -- ---xx ph1994-05-22d2t08.flac
2:59.59 31714412 --- -- ---xx ph1994-05-22d2t09.flac
1:50.38 19493420 --- -- ---xx ph1994-05-22d2t10.flac
6:01.25 63739244 --- -- ---xx ph1994-05-22d2t11.flac
0:52.39 9264572 --- -- ---xx ph1994-05-22d2t12.flac
149:07.00 1578251812 B (totals for 23 files, 0.5045 overall compression ratio)
Checksumsph1994-05-22d1t01.flac:65f40a789be385dfa873d17a6fb232ea
ph1994-05-22d1t02.flac:104e218626eebb0c372e6364dacfceb4
ph1994-05-22d1t03.flac:72a7ded201aa7b59921267763b0cae8d
ph1994-05-22d1t04.flac:aff0ebcf8694ad04ce888dc1fed6707f
ph1994-05-22d1t05.flac:965192f5319b8f66788ad3cb0bf48559
ph1994-05-22d1t06.flac:ce0a943773ec073056481ae2d45d9bc9
ph1994-05-22d1t07.flac:1fffe5d37d86d3d7547cc24e78696ae7
ph1994-05-22d1t08.flac:d8864a933d6bb21ef5e79cce6b4e62c6
ph1994-05-22d1t09.flac:33fb9314a458b5ecb20c5397e1722880
ph1994-05-22d1t10.flac:07ca54959305fcdf48dbd41eb0c1f689
ph1994-05-22d1t11.flac:a56d7b746a350eb7c51329c87e24403e
ph1994-05-22d2t01.flac:ebc8afee9deab47cb19f0be4d0914de3
ph1994-05-22d2t02.flac:fb526ea660748b6ab5b270c64406bf7d
ph1994-05-22d2t03.flac:4c8e640db4400c37b36a1f6426b8b269
ph1994-05-22d2t04.flac:ed1086bd32ff1e0fbb9e4963a6f30302
ph1994-05-22d2t05.flac:8a95f5cc10aedc7f6a4dc9ba72493cba
ph1994-05-22d2t06.flac:4e5b6388c1076644681a1a8d205e74f9
ph1994-05-22d2t07.flac:ba8f43db509ee950983b023bdf18e560
ph1994-05-22d2t08.flac:ad43a08537a1dd6135bde04073dee3d3
ph1994-05-22d2t09.flac:accc1a365de11e974bca52949d0eb618
ph1994-05-22d2t10.flac:d32ca4072b3a521d7687c9ce98d522a5
ph1994-05-22d2t11.flac:a4a61064a6cde59a872b794f8db10f6b
ph1994-05-22d2t12.flac:815ebdcc5d951fe03bfbd93291935e87
TypePhish
Last seederLast activity 32 days, 14:33:47 ago
Size759.29 MB (796171341 Bytes)
Added2013-01-31 22:30:11
Views0
Hits303
Snatched93 times
Upped bygeewiz010
Num files
[See full list]
26 files
Seeders
[Hide list]
0 Seeder(s)
Leechers
[Hide list]
0 Leecher(s)

No comments yet

Add a comment


http://etree.org : http://db.etree.org : http://forums.etree.org : http://wiki.etree.org : Legal : RSS Feed

Contents designed & maintained by the etree.org volunteers
1998-2014, etree.org, except where noted. All Rights Reserved.
Read our terms of service and privacy guidelines