bt.etree.org
etree.org Community Bittorrent Tracker
ArtistOther
ShowTruett Lollis Band Suburban Tap Marietta, Georgia 1/31/2013 (Schoeps CCM4V'S FOB)
Report this as
non-Trade-Friendly
Email us
Torrenttruett2013-01-31.flac16.torrent (click to download)
Downloads astruett2013-01-31.flac16
Info hash0610caaf753aa5bb4e2b7bdf151351bb7f3468ec
DescriptionTruett Lollis Band
Suburban Tap
Marietta, Georgia
1/31/2013

Source: Schoeps CCM4V'S(din)>Lunatec V2>Benchmark AD2K>
Sound Devices 722 (24/48)
BFOB/DFC/KFC/ZFC/AARP 11' From Stage, 6 1/2' High
DSP: Sound Devices 722>Sound Forge 9.0>CD Wave>flac(16)
Recorded By: Z-Man
Seeded By: Z-Man

Disc I

01 Cold Shot >
02 *Hold On To What you Got
03 Melissa
04 ?
05 It Could Be You
06 #
07 #Ain't No Sunshine When You're Gone
08 Sometimes Love Ain't Enough
09 #One Way Out
10 #Start It Up
11 #I'm Goin' Down
12 ?
13 Scandalous

* With ? On Vocals
# With Brendan McMacken On Harmonica

Flac Fingerprint

truett2013-01-3101.flac:167e94c4192bb9ef1386dcf977fe7a71
truett2013-01-3102.flac:37fa82a2cb82284e6c73c5c1b325a678
truett2013-01-3103.flac:c969ba5623418e0d18cb35484e0eab6a
truett2013-01-3104.flac:e9f96d0e326b8acd55e315cf9241b61d
truett2013-01-3105.flac:81c949df6cd455f1556fc38b8ede9175
truett2013-01-3106.flac:055d1f444116c66d0d8730414f816053
truett2013-01-3107.flac:c113e8cba952f2da918b6046e039d670
truett2013-01-3108.flac:8810de7bd8f7043ee9d356751fa5dc14
truett2013-01-3109.flac:720d834f9029b34c79ec9beaaf49c9db
truett2013-01-3110.flac:50c9ebd8011fb96bd357ce50a21c7235
truett2013-01-3111.flac:1cca303fcedf4f5f52c73760008a03ec
truett2013-01-3112.flac:dda361db4175139a797ef5aab84ee1e7
truett2013-01-3113.flac:c64949fca4ed75d5a7c2409bf3bf2d7a

Shntool

length expanded size cdr WAVE problems fmt ratio filename
4:58.42 52666028 B --- -- ---xx flac 0.4899 truett2013-01-3101.flac
6:11.43 65545580 B --- -- ---xx flac 0.4417 truett2013-01-3102.flac
6:39.46 70491836 B --- -- ---xx flac 0.4696 truett2013-01-3103.flac
3:58.40 42077324 B --- -- ---xx flac 0.5362 truett2013-01-3104.flac
4:17.53 45459500 B --- -- ---xx flac 0.4826 truett2013-01-3105.flac
5:12.73 55208540 B --- -- ---xx flac 0.4760 truett2013-01-3106.flac
6:14.44 66077132 B --- -- ---xx flac 0.4414 truett2013-01-3107.flac
4:45.55 50403404 B --- -- ---xx flac 0.5212 truett2013-01-3108.flac
5:55.73 62793740 B --- -- ---xx flac 0.5175 truett2013-01-3109.flac
5:01.62 53242268 B --- -- ---xx flac 0.4599 truett2013-01-3110.flac
3:44.67 39671228 B --- -- ---xx flac 0.5726 truett2013-01-3111.flac
5:46.65 61187324 B --- -- ---xx flac 0.4409 truett2013-01-3112.flac
8:02.42 85123628 B --- -- ---xx flac 0.5358 truett2013-01-3113.flac
70:51.30 749947532 B 0.4885 (13 files)
























Checksumstruett2013-01-3101.flac:167e94c4192bb9ef1386dcf977fe7a71
truett2013-01-3102.flac:37fa82a2cb82284e6c73c5c1b325a678
truett2013-01-3103.flac:c969ba5623418e0d18cb35484e0eab6a
truett2013-01-3104.flac:e9f96d0e326b8acd55e315cf9241b61d
truett2013-01-3105.flac:81c949df6cd455f1556fc38b8ede9175
truett2013-01-3106.flac:055d1f444116c66d0d8730414f816053
truett2013-01-3107.flac:c113e8cba952f2da918b6046e039d670
truett2013-01-3108.flac:8810de7bd8f7043ee9d356751fa5dc14
truett2013-01-3109.flac:720d834f9029b34c79ec9beaaf49c9db
truett2013-01-3110.flac:50c9ebd8011fb96bd357ce50a21c7235
truett2013-01-3111.flac:1cca303fcedf4f5f52c73760008a03ec
truett2013-01-3112.flac:dda361db4175139a797ef5aab84ee1e7
truett2013-01-3113.flac:c64949fca4ed75d5a7c2409bf3bf2d7a
TypeOther
Last seederLast activity 110 days, 18:50:42 ago
Size349.40 MB (366367983 Bytes)
Added2013-02-01 12:55:06
Views0
Hits186
Snatched20 times
Upped byzmanatl
Num files
[See full list]
14 files
Peers
[See full list]
1 seeder, 0 leechers = 1 peer total

No comments yet

Add a comment


http://etree.org : http://db.etree.org : http://forums.etree.org : http://wiki.etree.org : Legal : RSS Feed

Contents designed & maintained by the etree.org volunteers
1998-2014, etree.org, except where noted. All Rights Reserved.
Read our terms of service and privacy guidelines