bt.etree.org
etree.org Community Bittorrent Tracker
ArtistOther
ShowHalem Albright Smith's Olde Bar Atlanta, Georgia 2/1/2013 (Schoeps CCM4V'S FOB)
Report this as
non-Trade-Friendly
Email us
Torrenthalem2013-02-01.flac16.torrent (click to download)
Downloads ashalem2013-02-01.flac16
Info hashc6dcb9ad3fe4c57a67161924f0c5923390b8bc43
DescriptionHalem Albright
Smith's Olde Bar
Atlanta, Georgia
2/1/2013

Source: Schoeps CCM4V'S(din)>Lunatec V2>Benchmark AD2K>
Sound Devices 722 (24/48)
BFOB/DFC/KFC/ZFC/AARP 15' From Stage, 7' High
DSP: Sound Devices 722>Sound Forge 9.0>CD Wave>flac(16)
Recorded By: Z-Man
Seeded By: Z-Man

Disc I

01 Greetng
02 YUM 2 >
03 Boomer's Boys >
04 Breathe >
05 Window To Heaven
06 The River >
07 Slip By

Halem Albright - Guitar And Vocals
Spencer Pope - Keyboards
Kevin Scott - Bass
Duane Trucks - Drums
John McCoy - Percussion

Flac Fingerprint

halem2013-02-01d01t01.flac:34b8947f7bfcefabcdd3db93bbc1937b
halem2013-02-01d01t02.flac:02b1311a6c48d73203998d6f200fe636
halem2013-02-01d01t03.flac:548c80619b2003e56bccaaf735920ba5
halem2013-02-01d01t04.flac:c83f4099b503adddfe19ee6a96343fd0
halem2013-02-01d01t05.flac:abf114251e311e468a8151ae772abd52
halem2013-02-01d01t06.flac:48bcccb37bf58d60356208f21723a9e6
halem2013-02-01d01t07.flac:77841eb5791d1d2a65cdadbdfe9f173e

Shntool

length expanded size cdr WAVE problems fmt ratio filename
0:23.01 4059596 B --- -- ---xx flac 0.3532 halem2013-02-01d01t01.flac
5:10.68 54843980 B --- -- ---xx flac 0.5394 halem2013-02-01d01t02.flac
12:46.24 135178892 B --- -- ---xx flac 0.5663 halem2013-02-01d01t03.flac
7:19.67 77597228 B --- -- ---xx flac 0.6067 halem2013-02-01d01t04.flac
4:43.38 50010620 B --- -- ---xx flac 0.5636 halem2013-02-01d01t05.flac
8:49.23 93369740 B --- -- ---xx flac 0.5842 halem2013-02-01d01t06.flac
5:11.10 54883964 B --- -- ---xx flac 0.5538 halem2013-02-01d01t07.flac
44:24.06 469944020 B 0.5698 (7 files)










Checksumshalem2013-02-01d01t01.flac:34b8947f7bfcefabcdd3db93bbc1937b<br />
halem2013-02-01d01t02.flac:02b1311a6c48d73203998d6f200fe636<br />
halem2013-02-01d01t03.flac:548c80619b2003e56bccaaf735920ba5<br />
halem2013-02-01d01t04.flac:c83f4099b503adddfe19ee6a96343fd0<br />
halem2013-02-01d01t05.flac:abf114251e311e468a8151ae772abd52<br />
halem2013-02-01d01t06.flac:48bcccb37bf58d60356208f21723a9e6<br />
halem2013-02-01d01t07.flac:77841eb5791d1d2a65cdadbdfe9f173e
TypeOther
Last seederLast activity 61 days, 20:35:44 ago
Size255.38 MB (267780842 Bytes)
Added2013-02-02 12:52:37
Views0
Hits133
Snatched15 times
Upped byzmanatl
Num files
[See full list]
8 files
Seeders
[Hide list]
0 Seeder(s)
Leechers
[Hide list]
0 Leecher(s)

Add a comment

sean612 2013-02-03 13:08:38
Thanks Z-man.

Add a comment


http://etree.org : http://db.etree.org : http://forums.etree.org : http://wiki.etree.org : Legal : RSS Feed

Contents designed & maintained by the etree.org volunteers
1998-2014, etree.org, except where noted. All Rights Reserved.
Read our terms of service and privacy guidelines