bt.etree.org
etree.org Community Bittorrent Tracker
ArtistGrateful Dead
Showgd82-10-09.93811.mtx.seamons.t-flac16
Report this as
non-Trade-Friendly
Email us
Torrentgd82-10-09.93811.mtx.seamons.sbeok.t-flac16.torrent (click to download)
Downloads asgd82-10-09.93811.mtx.seamons.sbeok.t-flac16
Info hash3eb46836b771878ad1aef54aa2f2dddea7b6801a
db linkhttp://db.etree.org/shn/93811 | Show | Source
DescriptionThis is a flac encoded & tagged version of shind: 93811

Grateful Dead
October 9, 1982
Frost Amphitheater
Stanford University
Palo Alto, CA

*MATRIX*
-----------------------------------------------------------------
SBD

MR>PCM>DAT>CD-R

Conversion:
SHN>WAV>Shntool>CD WAV>Cool Edit Pro>Shntool>SHN(Seekable)

Upgraded Conversion/Edit/Re Seeded by T. Wiley 03/05/2003

-----------------------------------------------------------------
AUD

Recording Info:
(FOB) Sony ECM-220T ->Cassette Master(Sony TC-D5M/Fuji Metal Tape/Dolby B)

Transfer Info:
Cassette Master(Nakamichi DR-1/Dolby B) ->Sound Devices 744T (24bit/88.2k)
->Samplitude Professional v10.1 -> FLAC/16
(3 Discs Audio / 2 Discs FLAC)

All Transfers and Mastering By Charlie Miller
charliemiller87@earthlink.net
July 30, 2008

-----------------------------------------------------------------
Thank you to T. Wiley for the SBD transfer,
to Charlie Miller for the AUD transfer,
and to Rango Keshavan for the excellent recording.

Matrix by Hunter Seamons
using Final Cut Pro (SHN & FLAC>AIFF>Final Cut>WAV>FLAC)
August 3, 2008
______________________________________________________________________________

--Set 1--
101-d1t01 - Bill Graham Intro
102-d1t02 - Alabama Getaway ->
103-d1t03 - Greatest Story Ever Told
104-d1t04 - They Love Each Other
105-d1t05 - On The Road Again ->
106-d1t06 - Beat It on Down the Line
107-d1t07 - West L.A. Fadeaway
108-d1t08 - Me & My Uncle ->
109-d1t09 - Big River
110-d1t10 - Dupree's Diamond Blues
111-d1t11 - The Music Never Stopped ->
112-d1t12 - Deal

--Set 2--
201-d2t01 - Tuning
202-d2t02 - Throwing Stones ->
203-d2t03 - Touch of Grey
204-d2t04 - Estimated Prophet ->
205-d2t05 - Eyes of the World ->
206-d2t06 - Drums ->
207-d3t01 - Space ->
208-d3t02 - Truckin' ->
209-d3t03 - The Other One ->
210-d3t04 - Morning Dew
211-d3t05 - One More Saturday Night

--Encore--
212-d3t06 - U.S. Blues
213-d3t07 - House Music/Bill Graham Outro
______________________________________________________________________________

Notes:
1) There is occasional static, clicks, pops, shifty sound, and hiccups in the
SBD source. (Other than that, the SBD is pretty copacetic.)

2) Since there were a handful of gaps in the SBD during songs, there will be
occasions where only the AUD is playing. There were so many time shifts
(cuts) in the latter half of U.S. Blues that I opted to only have the AUD
play for that portion of it.

3) The "House Music/Bill Graham Outro" track is from SHN ID 23730,
transferred by Joe Samaritano.

4) The SBD mix evens out during Getaway. (Phil comes into it a little late.)

5) The low gain of the SBD source was reduced 6 dB
______________________________________________________________________________

Tagging notes:
Show information is embedded within the header of each flac file.
It will display on any player capable of directly playing flac files.
If converted to wav during processing, all tags will be stripped,
however audio data will remain unaffected.
If you must transcode to a lossy format, do so directly Flac > Lossy.
Use ffp to validate audio integrity.
Md5 values will change if tagging is altered.
B. Proctor 4-08-11
______________________________________________________________________________

length expanded size cdr WAVE problems fmt ratio filename
1:27.14 15379772 B --- -- ---xx gd82-10-09d1t01.flac
5:00.06 52934156 B --- -- ---xx gd82-10-09d1t02.flac
5:08.63 54479420 B --- -- ---xx gd82-10-09d1t03.flac
8:29.13 89818220 B --- -- ---xx gd82-10-09d1t04.flac
3:46.67 40024028 B --- -- ---xx gd82-10-09d1t05.flac
4:26.62 47068268 B --- -- ---xx gd82-10-09d1t06.flac
8:08.30 86153804 B --- -- ---xx gd82-10-09d1t07.flac
3:24.50 36103244 B --- -- ---xx gd82-10-09d1t08.flac
6:19.03 66862700 B --- -- ---xx gd82-10-09d1t09.flac
6:55.19 73250732 B --- -- ---xx gd82-10-09d1t10.flac
7:31.56 79688156 B --- -- ---xx gd82-10-09d1t11.flac
6:47.41 71891276 B --- -- ---xx gd82-10-09d1t12.flac
0:54.44 9629132 B --- -- ---xx gd82-10-09d2t01.flac
7:08.35 75581564 B --- -- ---xx gd82-10-09d2t02.flac
7:05.39 75061772 B --- -- ---xx gd82-10-09d2t03.flac
11:15.28 119135900 B --- -- ---xx gd82-10-09d2t04.flac
9:56.27 105197948 B --- -- ---xx gd82-10-09d2t05.flac
7:43.08 81692060 B --- -- ---xx gd82-10-09d2t06.flac
6:58.11 73761116 B --- -- ---xx gd82-10-09d3t01.flac
10:12.03 107963900 B --- -- ---xx gd82-10-09d3t02.flac
4:57.10 52414364 B --- -- ---xx gd82-10-09d3t03.flac
9:50.19 104120732 B --- -- ---xx gd82-10-09d3t04.flac
5:29.45 58141484 B --- -- ---xx gd82-10-09d3t05.flac
5:26.22 57558188 B --- -- ---xx gd82-10-09d3t06.flac
2:37.25 27753644 B --- -- ---xx gd82-10-09d3t07.flac
156:59.65 1661665580 B 0.5939 (25 files)
Checksumsgd82-10-09d1t01.flac:88c5a92427c93d5adde5b80faf8dab2f
gd82-10-09d1t02.flac:de6209d557378e63e027774c697ecd30
gd82-10-09d1t03.flac:823d791521ee9587679c5cb41d46f8b0
gd82-10-09d1t04.flac:be2fe784835cf6c7cf16da0bc05fbe34
gd82-10-09d1t05.flac:644cf3ea9b2da8156bb676a5affb91dc
gd82-10-09d1t06.flac:fdbaf8956bf017fcebd040b3e7877de7
gd82-10-09d1t07.flac:0440564b0f3ec5277a94fea709a4bf39
gd82-10-09d1t08.flac:5567b495064a803058274f9c859648fd
gd82-10-09d1t09.flac:c5d38c55b821060db062e5e81b64e2df
gd82-10-09d1t10.flac:f24994172d7c30b27dea42030def8c29
gd82-10-09d1t11.flac:0116d89d6465b0ea64551c0b0f1dec67
gd82-10-09d1t12.flac:da596ad9287eabae984f42fb7606a2a3
gd82-10-09d2t01.flac:6b4f4f5d3d9957c0a5fd49983f3d2179
gd82-10-09d2t02.flac:cbe60dec2a49633acbc5a61722321dbb
gd82-10-09d2t03.flac:01a4a327ec5c2f2636ca3b09fe363673
gd82-10-09d2t04.flac:763724cfef8ac4173025bf71b849ec3c
gd82-10-09d2t05.flac:ba5a241f5a33c51d0757ba29358cc5e4
gd82-10-09d2t06.flac:07044c2a33779bd06fd6eedd36cd2e73
gd82-10-09d3t01.flac:ce99ba8f7c8ae3c7fa9abfa8d8bf1260
gd82-10-09d3t02.flac:531bdd215e41e5c2afed0de48014b9cb
gd82-10-09d3t03.flac:4efeb09b296dd6e196cc23e60d39e3c4
gd82-10-09d3t04.flac:374b32ecf7d255fe0967c45dea5ae31f
gd82-10-09d3t05.flac:cf6632c74c213bb2f4446ae807df654e
gd82-10-09d3t06.flac:f85d2a71b7556803c97ed41072730b43
gd82-10-09d3t07.flac:7dab97cba1427dba027c3a9d54cd8883
TypeGrateful Dead
Last seederLast activity 14:27 ago
Size941.08 MB (986790865 Bytes)
Added2013-02-02 13:29:05
Views0
Hits401
Snatched228 times
Upped bygermain
Num files28 files
File List
[Hide list]
filenamesizemd5
gd1982-10-09.txt5.2 kBN/A
gd82-10-09.93811.tagged.md51.5 kBN/A
gd82-10-09.mtx.seamons.fingerprint.ffp1.3 kBN/A
gd82-10-09d1t01.flac6.99 MBN/A
gd82-10-09d1t02.flac32.15 MBN/A
gd82-10-09d1t03.flac30.26 MBN/A
gd82-10-09d1t04.flac49.92 MBN/A
gd82-10-09d1t05.flac23.37 MBN/A
gd82-10-09d1t06.flac26.11 MBN/A
gd82-10-09d1t07.flac48.01 MBN/A
gd82-10-09d1t08.flac20.99 MBN/A
gd82-10-09d1t09.flac38.48 MBN/A
gd82-10-09d1t10.flac40.76 MBN/A
gd82-10-09d1t11.flac46.06 MBN/A
gd82-10-09d1t12.flac42.90 MBN/A
gd82-10-09d2t01.flac3.80 MBN/A
gd82-10-09d2t02.flac44.33 MBN/A
gd82-10-09d2t03.flac44.14 MBN/A
gd82-10-09d2t04.flac68.38 MBN/A
gd82-10-09d2t05.flac61.28 MBN/A
gd82-10-09d2t06.flac40.29 MBN/A
gd82-10-09d3t01.flac38.25 MBN/A
gd82-10-09d3t02.flac63.39 MBN/A
gd82-10-09d3t03.flac31.18 MBN/A
gd82-10-09d3t04.flac58.71 MBN/A
gd82-10-09d3t05.flac33.71 MBN/A
gd82-10-09d3t06.flac33.23 MBN/A
gd82-10-09d3t07.flac14.38 MBN/A
Peers
[See full list]
2 seeders, 0 leechers = 2 peers total

Add a comment

gctaper64 2013-02-02 21:05:38
Thanks..one of my favorite shows...
JohnChimpo 2013-02-03 11:39:15
Love this show, especially the first set, which was one of my first tapes. Thanks for the share. I am compiling a folder of '82 west LAs and this one is a goodie!
WRBzWorld 2013-02-10 13:37:41
Thank you!

Add a comment


http://etree.org : http://db.etree.org : http://forums.etree.org : http://wiki.etree.org : Legal : RSS Feed

Contents designed & maintained by the etree.org volunteers
1998-2014, etree.org, except where noted. All Rights Reserved.
Read our terms of service and privacy guidelines