bt.etree.org
etree.org Community Bittorrent Tracker
ArtistGrateful Dead
Showgd82-10-10.093733.fob-sonyecm220t.keshaven.miller.t-flac24
Report this as
non-Trade-Friendly
Email us
Torrentgd82-10-10.093733.fob-sonyecm220t.kesahven-miller.t-flac24.torrent (click to download)
Downloads asgd82-10-10.093733.fob-sonyecm220t.kesahven-miller.t-flac24
Info hash3e4f6792c4dcfca4fd5afe12b82320df79d1b059
db linkhttp://db.etree.org/shn/93733 | Show | Source
DescriptionThis is a tagged version of shinid: 93733

Grateful Dead
October 10, 1982
Frost Amphitheatre, Stanford University
Palo Alto, CA


Recording Info:
(FOB) Sony ECM-220T -> Cassette Master (Sony TC-D5M/Fuji Metal Tape/Dolby B)

Transfer Info:
Cassette Master (Nakamichi DR-1/Dolby B) -> Sound Devices 744T (24bit/88.2k) ->
Samplitude Professional
v10.1 -> FLAC/24
(1 DVD FLAC)

All Transfers and Mastering By Charlie Miller
charliemiller87@earthlink.net
July 30, 2008

Notes:
Thanks to Rango Keshavan for lending me his masters
______________________________________________________________________________________________________

--Set 1--
101-s1t01 - Tuning
102-s1t02 - New Minglewood Blues ->
103-s1t03 - Sugaree ->
104-s1t04 - Little Red Rooster
105-s1t05 - Tennessee Jed
106-s1t06 - Cassidy
107-s1t07 - Loser
108-s1t08 - Far From Me ->
109-s1t09 - Looks Like Rain ->
110-s1t10 - China Cat Sunflower ->
111-s1t11 - I Know You Rider

--Set 2--
201-s2t01 - Tuning
202-s2t02 - Playing in the Band ->
203-s2t03 - Crazy Fingers ->
204-s2t04 - Lost Sailor ->
205-s2t05 - Saint of Circumstance ->
206-s2t06 - Touch of Grey ->
207-s2t07 - Drums ->
208-s2t08 - Space ->
209-s2t09 - The Wheel ->
210-s2t10 - Throwing Stones ->
211-s2t11 - Not Fade Away ->
212-s2t12 - Black Peter ->
213-s2t13 - Sugar Magnolia

--Encore--
214-s2t14 - (I Can't Get No) satisfaction
215-s2t15 - It's All Over Now, Baby Blue
______________________________________________________________________________________________________

Tagging notes:
Show information is embedded within the header of each flac file.
It will display on any player capable of directly playing flac files.
If converted to wav during processing, all tags will be stripped,
however audio data will remain unaffected.
If you must transcode to a lossy format, do so directly Flac > Lossy.
Use ffp to validate audio integrity.
Md5 values will change if tagging is altered.
B. Proctor 10-10-11
______________________________________________________________________________________________________

SHNTOOL OUTPUT:

length expanded size cdr WAVE problems filename

1:44.307 30040364 cxx -- ----- gd82-10-10s1t01.wav

7:26.560 128609324 cxx -- ----- gd82-10-10s1t02.wav

10:09.947 175664678 cxx -- ----- gd82-10-10s1t03.wav

8:25.680 145635878 cxx -- ----- gd82-10-10s1t04.wav

9:30.653 164348198 cxx -- ----- gd82-10-10s1t05.wav

6:20.587 109609004 cxx -- ----- gd82-10-10s1t06.wav

7:27.867 128985644 cxx -- ----- gd82-10-10s1t07.wav

4:06.133 70886438 cxx -- ----- gd82-10-10s1t08.wav

8:59.560 155393318 cxx -- ----- gd82-10-10s1t09.wav

5:53.320 101756204 cxx -- ----- gd82-10-10s1t10.wav

6:12.638 107319716 cxx -- ----- gd82-10-10s1t11.wav

2:27.467 42470438 cxx -- ----- gd82-10-10s2t01.wav

7:06.707 122891564 cxx -- ----- gd82-10-10s2t02.wav

11:12.653 193724198 cxx -- ----- gd82-10-10s2t03.wav

7:13.387 124815404 cxx -- ----- gd82-10-10s2t04.wav

6:59.200 120729644 cxx -- ----- gd82-10-10s2t05.wav

7:16.067 125587244 cxx -- ----- gd82-10-10s2t06.wav

8:06.627 140148518 cxx -- ----- gd82-10-10s2t07.wav

6:48.413 117623084 cxx -- ----- gd82-10-10s2t08.wav

5:14.213 90493478 cxx -- ----- gd82-10-10s2t09.wav

7:44.320 133724198 cxx -- ----- gd82-10-10s2t10.wav

4:42.027 81223718 cxx -- ----- gd82-10-10s2t11.wav

8:11.080 141431078 cxx -- ----- gd82-10-10s2t12.wav

6:18.933 109132844 cxx -- ----- gd82-10-10s2t14.wav

183:12.097 3165725014 B (totals for 26 files)

Checksumsgd82-10-10s1t01.flac:f4316441036c4e88b253dd14e8b26e46<br />
gd82-10-10s1t02.flac:fae9c7a1f58a87ff840e1fd49c92e27e<br />
gd82-10-10s1t03.flac:8696340c00108fa6f69228cc02567b1b<br />
gd82-10-10s1t04.flac:878e6e59744d36367492cf98fa4e0e50<br />
gd82-10-10s1t05.flac:c53d712d5c03ad66ab311f56fc533a3b<br />
gd82-10-10s1t06.flac:26e4ce987fc5e34eb95159cd7b543678<br />
gd82-10-10s1t07.flac:9e364b28ce5113f714f5efbbf91a60ce<br />
gd82-10-10s1t08.flac:3d8025e56455785c3aa08f158775a857<br />
gd82-10-10s1t09.flac:69c174b0f2af498f1d654e25a5af00a1<br />
gd82-10-10s1t10.flac:7a36224b558d2461ca4849f8cdb28e5c<br />
gd82-10-10s1t11.flac:2d02089f9d7787d5e7ca6f9442964b8d<br />
gd82-10-10s2t01.flac:53191dd4bffcb2712ba8207ca209e322<br />
gd82-10-10s2t02.flac:199a88d50149022c9401652ad91a96ce<br />
gd82-10-10s2t03.flac:0af5b4c88ed8fc1d94d7666ecc4eee06<br />
gd82-10-10s2t04.flac:7c143410f6b80fea3e2d9bf8cdd072eb<br />
gd82-10-10s2t05.flac:49dc6f418099d792b7b85dd40538772e<br />
gd82-10-10s2t06.flac:1d103a9d81f40683ffe35cc1c223059b<br />
gd82-10-10s2t07.flac:538f85fd2593d152b270b5ba9cf26ef3<br />
gd82-10-10s2t08.flac:451c5a4caba3bc1975fe894cc3f3ab45<br />
gd82-10-10s2t09.flac:6ef8d3c8e91ae75c3d291e695a56f8d7<br />
gd82-10-10s2t10.flac:45affa529500f38c15f5292e422a89f9<br />
gd82-10-10s2t11.flac:110f8e22f3e5dd64b478d33dfcd19c30<br />
gd82-10-10s2t12.flac:a58e229ac0d278cd9b9ff7b49cb988f8<br />
gd82-10-10s2t13.flac:e411c9742094de1c4eb9818ee46a9274<br />
gd82-10-10s2t14.flac:a6da9e20789c0e499f9c6e61ba291123<br />
gd82-10-10s2t15.flac:c714e4201b820eddbcae84fbbc4de290<br />
TypeGrateful Dead
Last seederLast activity 7:26 ago
Size2.569 GB (2758266691 Bytes)
Added2013-02-03 08:05:36
Views0
Hits246
Snatched70 times
Upped bygermain
Num files29 files
File List
[Hide list]
filenamesizemd5
gd1982-10-10.093733.txt4.0 kBN/A
gd1982-10-10.93733.ffp1.4 kBN/A
gd82-10-10.tagged.md51.5 kBN/A
gd82-10-10s1t01.flac20.17 MBN/A
gd82-10-10s1t02.flac112.25 MBN/A
gd82-10-10s1t03.flac148.80 MBN/A
gd82-10-10s1t04.flac122.66 MBN/A
gd82-10-10s1t05.flac129.77 MBN/A
gd82-10-10s1t06.flac92.31 MBN/A
gd82-10-10s1t07.flac107.51 MBN/A
gd82-10-10s1t08.flac60.97 MBN/A
gd82-10-10s1t09.flac119.10 MBN/A
gd82-10-10s1t10.flac85.68 MBN/A
gd82-10-10s1t11.flac95.65 MBN/A
gd82-10-10s2t01.flac27.09 MBN/A
gd82-10-10s2t02.flac106.31 MBN/A
gd82-10-10s2t03.flac162.32 MBN/A
gd82-10-10s2t04.flac100.70 MBN/A
gd82-10-10s2t05.flac111.30 MBN/A
gd82-10-10s2t06.flac115.57 MBN/A
gd82-10-10s2t07.flac95.42 MBN/A
gd82-10-10s2t08.flac76.25 MBN/A
gd82-10-10s2t09.flac77.15 MBN/A
gd82-10-10s2t10.flac113.96 MBN/A
gd82-10-10s2t11.flac70.82 MBN/A
gd82-10-10s2t12.flac113.52 MBN/A
gd82-10-10s2t13.flac160.94 MBN/A
gd82-10-10s2t14.flac100.44 MBN/A
gd82-10-10s2t15.flac103.82 MBN/A
Peers
[See full list]
0 seeders, 1 leecher = 1 peer total

Add a comment

germain 2013-02-03 08:06:37
This show from the Frost is a personal favorite of mine; a pinnacle of '82 Dead. It looks as if a lot of other people feel the same way as there are an amazing twenty sources for this show. When you start to dig, it comes down to three noteworthy audience sources, a masterfully produced board from Charlie Miller and a top notch matrix from Hunter Seamons. Add to that, each of these sources was released in both 16 and 24 bit renditions.

The audience selection committee couldn't decide whether to go with the Rango Keshaven or the Bob Wagner source. They are both excellent recordings, so instead of picking just one, we went with both. Of course a few days ago when Charlie Miller released David Gans recording, I couldn't pass that up either.

Since I couldn't seed all these sources in one day, I've decided to break my seeds up over three days. Today you can select between audience sources. Monday you will have the choice between the 16 & 24 bit board and Tuesday a choice between the 16 & 24 bit matrix.

I decided not to seed both the 16 & 24 bit audience sources. Since the Rango Keshaven source is my personal favorite out of all the available sources ( audience, board or matrix), I grabbed the 24 bit copy for my collection and went with the 16 bit sources for the other two. Since each of these sources are available at the Archive, I figure if you need the source I don't offer, you can go over there and get it.

And the show? Maybe not quite at the heights of the glory days of a few years past, but still a lofty peak of good ole' Grateful Dead goodness.

Add a comment


http://etree.org : http://db.etree.org : http://forums.etree.org : http://wiki.etree.org : Legal : RSS Feed

Contents designed & maintained by the etree.org volunteers
1998-2014, etree.org, except where noted. All Rights Reserved.
Read our terms of service and privacy guidelines