bt.etree.org
etree.org Community Bittorrent Tracker
ArtistOther
ShowIsaac Bramblett Band With Sonny Ortiz New Earth Music Hall Athens, Georgia 2/2/2013 (Schoeps CCM4V'S FOB)
Report this as
non-Trade-Friendly
Email us
Torrentisaac2013-02-02.flac16.torrent (click to download)
Downloads asisaac2013-02-02.flac16
Info hashd6957141aeb79d2de65702ee7b3e07701b76187f
DescriptionIsaac Bramblett Band
New Earth Music Hall
Athens, Georgia
2/2/2013

Source: Schoeps CCM4V'S(din)>Lunatec V2>Benchmark AD2K>
Sound Devices 722 (24/48)
FOB/DFC/KFC/ZFC/AARP 19' From Stage, 7' High
DSP: Sound Devices 722>Sound Forge 9.0>CD Wave>flac(16)
Recorded By: Z-Man
Seeded By: Z-Man

Disc I

01 Greeting/Band Introductions
02 So Glad
03 59
04 Right There
05 Brand New Life
06 Outta My Mind
07 Move Your Hands
08 Faithful Man
09 Along The Same Line
10 I'm Goin' Down
11 Darkness
12 Love Slip Upon Ya
13 Revolution

Isaac Bramblett - Acoustic Guitar And Vocals
Sonny Ortiz - Percussion
Derrick Warren - Bass
Brett West - Guitar
Damian Kaplan - Keyboards
Dean Johnson - Drums

Flac Fingerprint

Isaac2013-02-02d01t01.flac:ac82e004e3010951d27cebbed9c8dfdf
Isaac2013-02-02d01t02.flac:5e32a934ca39106714eb6e909c11ce12
Isaac2013-02-02d01t03.flac:5cf3ad8231822246a85c667cb227875c
Isaac2013-02-02d01t04.flac:13915d8df63f148137bff80d37b86d12
Isaac2013-02-02d01t05.flac:662e366d8cf90cf0095af36db0db1b14
Isaac2013-02-02d01t06.flac:c50aea77489326d7ce90e1ac0abf5a22
Isaac2013-02-02d01t07.flac:7b921df0760b212cbf5570e81c7ed04a
Isaac2013-02-02d01t08.flac:d134192cebf1e2599a1a8e4f879e6735
Isaac2013-02-02d01t09.flac:dfb3dc2b4d17c3f695b03caf35df9f62
Isaac2013-02-02d01t10.flac:2d08d8cf7450fbffebc00f6aa71c051e
Isaac2013-02-02d01t11.flac:6dc20b8f0098f5edec3fb1bf632b540b
Isaac2013-02-02d01t12.flac:04d0fb19e8bef5ef3cc02983c6f84de2
Isaac2013-02-02d01t13.flac:e1d2a58244f516a7232f1959b5f8efc5

Shntool

length expanded size cdr WAVE problems fmt ratio filename
1:42.60 18133964 B --- -- ---xx flac 0.3772 Isaac2013-02-02d01t01.flac
4:53.51 51805196 B --- -- ---xx flac 0.5578 Isaac2013-02-02d01t02.flac
4:50.05 51167804 B --- -- ---xx flac 0.5329 Isaac2013-02-02d01t03.flac
5:34.64 59068172 B --- -- ---xx flac 0.5007 Isaac2013-02-02d01t04.flac
4:10.70 44264684 B --- -- ---xx flac 0.5035 Isaac2013-02-02d01t05.flac
5:18.06 56109356 B --- -- ---xx flac 0.5384 Isaac2013-02-02d01t06.flac
6:35.00 69678044 B --- -- ---xx flac 0.5224 Isaac2013-02-02d01t07.flac
3:29.46 36975836 B --- -- ---xx flac 0.5201 Isaac2013-02-02d01t08.flac
7:15.30 76804604 B --- -- ---xx flac 0.4822 Isaac2013-02-02d01t09.flac
4:38.71 49206236 B --- -- ---xx flac 0.5374 Isaac2013-02-02d01t10.flac
3:48.26 40280396 B --- -- ---xx flac 0.4823 Isaac2013-02-02d01t11.flac
7:18.15 77298524 B --- -- ---xx flac 0.5266 Isaac2013-02-02d01t12.flac
8:16.33 87572060 B --- -- ---xx flac 0.5251 Isaac2013-02-02d01t13.flac
67:52.27 718364876 B 0.5155 (13 files)








ChecksumsIsaac2013-02-02d01t01.flac:ac82e004e3010951d27cebbed9c8dfdf<br />
Isaac2013-02-02d01t02.flac:5e32a934ca39106714eb6e909c11ce12<br />
Isaac2013-02-02d01t03.flac:5cf3ad8231822246a85c667cb227875c<br />
Isaac2013-02-02d01t04.flac:13915d8df63f148137bff80d37b86d12<br />
Isaac2013-02-02d01t05.flac:662e366d8cf90cf0095af36db0db1b14<br />
Isaac2013-02-02d01t06.flac:c50aea77489326d7ce90e1ac0abf5a22<br />
Isaac2013-02-02d01t07.flac:7b921df0760b212cbf5570e81c7ed04a<br />
Isaac2013-02-02d01t08.flac:d134192cebf1e2599a1a8e4f879e6735<br />
Isaac2013-02-02d01t09.flac:dfb3dc2b4d17c3f695b03caf35df9f62<br />
Isaac2013-02-02d01t10.flac:2d08d8cf7450fbffebc00f6aa71c051e<br />
Isaac2013-02-02d01t11.flac:6dc20b8f0098f5edec3fb1bf632b540b<br />
Isaac2013-02-02d01t12.flac:04d0fb19e8bef5ef3cc02983c6f84de2<br />
Isaac2013-02-02d01t13.flac:e1d2a58244f516a7232f1959b5f8efc5
TypeOther
Last seederLast activity 88 days, 22:02:05 ago
Size353.15 MB (370305723 Bytes)
Added2013-02-03 16:15:18
Views0
Hits138
Snatched23 times
Upped byzmanatl
Num files
[See full list]
14 files
Peers
[See full list]
0 seeders, 1 leecher = 1 peer total

Add a comment

zmanatl 2013-02-04 10:34:55
Here are a few videos to give you an idea of what we got to see. Amateur, but very wartchable:

'm Goin' Down:
http://youtu.be/s2PcWP_iw1g

Move Your Hands:
http://youtu.be/PC1DF8VV8Po

Outta My Mind:
http://youtu.be/xu8Dg5KsPtk

Right There:
http://youtu.be/yf4qH52GGIk

Unknown Song:
http://youtu.be/exFD7Lu6_6k

Add a comment


http://etree.org : http://db.etree.org : http://forums.etree.org : http://wiki.etree.org : Legal : RSS Feed

Contents designed & maintained by the etree.org volunteers
1998-2014, etree.org, except where noted. All Rights Reserved.
Read our terms of service and privacy guidelines