bt.etree.org
etree.org Community Bittorrent Tracker
ArtistOther
ShowSt. Francis With Sonny Ortiz New Earth Music Hall Athens, Georgia 2/2/2013 (Schoeps CCM4V'S FOB)
Report this as
non-Trade-Friendly
Email us
Torrentstfrancis2013-02-02.flac16.torrent (click to download)
Downloads asstfrancis2013-02-02.flac16
Info hash6e3db3abf82d5ccff264ac1ff2b82f5ba50cf0f6
DescriptionSt. Francis
New Earth Music Hall
Athens, Georgia
2/2/2013

Source: Schoeps CCM4V'S(din)>Lunatec V2>Benchmark AD2K>
Sound Devices 722 (24/48)
FOB/DFC/KFC/ZFC/AARP 19' From Stage, 7' High
DSP: Sound Devices 722>Sound Forge 9.0>CD Wave>flac(16)
Recorded By: Z-Man
Seeded By: Z-Man

Disc I

01 Greeting By Scott
02 Oh My Heart
03 Cajun Drawl
04 Coming Home
05 The River
06 Songs Been Sung >
07 Burned By The Sun
08 Georgia Peach >
09 Get Back On The Train
10 Bubble >
11 Stack'n Stones >
12 Mine Eyes

Disc II

01 Band Introductions
02 Helpless
03 Wasting Time >
04 Late In The Evening >
05 Drum Solo >
06 Late In The Evening
07 People
08 *Get Behind The Mule
Encore:
09 Thanks
10 Jericho >
11 Shoefly

* A Guitarist And Bass Player Sat In For Parts Of The Song.

Scott Baston - Guitar And Vocals
Sonny Ortiz - Percussion
Mark Van Allen - Pedal Steel Guitar
Jeremy Johnson - Guitar And Vocals
Carlos Anamerato - Bass
Rackley Davis - Drums
Mason Davis - Percussion
Brandon McRae - Keyboards

Flac Fingerprint

stfrancis2013-02-02d01t01.flac:8d22e0dfa09ff8a4bb10ee1c433ec9bd
stfrancis2013-02-02d01t02.flac:beb50109bf2255adbde01dcf22e6db2a
stfrancis2013-02-02d01t03.flac:33f77c10f0aa7076a1c94b7ec886c041
stfrancis2013-02-02d01t04.flac:74f1fba739373d453acbcf78cdaa740d
stfrancis2013-02-02d01t05.flac:807b2e9eb68df0c8327b338f1f7f8b0e
stfrancis2013-02-02d01t06.flac:5c0a0044db1c6947231ae4962e7d6ff5
stfrancis2013-02-02d01t07.flac:d801797c8b46b866531ec8eb2e3178ce
stfrancis2013-02-02d01t08.flac:a0aa7385aad56b9fa5df1e853ebc56fa
stfrancis2013-02-02d01t09.flac:7b0f68cb5fc2291ffe66cad29716cb43
stfrancis2013-02-02d01t10.flac:6a7c77d21cc08b27c99714c157fe829e
stfrancis2013-02-02d01t11.flac:c3a07fc2670de3e2e5cfbf6633d24616
stfrancis2013-02-02d01t12.flac:601491a4afc64712a584f5c6deae6b83
stfrancis2013-02-02d02t01.flac:17ae2765b40dada67683adb4bce10c3a
stfrancis2013-02-02d02t02.flac:ca16de5428b6e74a160fb75c313fc311
stfrancis2013-02-02d02t03.flac:433aedeae7ad65b35d28dd5ae4f61230
stfrancis2013-02-02d02t04.flac:d2bd6bfa6c8e5f6ee9fe982405e7e13f
stfrancis2013-02-02d02t05.flac:f245a7dcf9ce27dc576491ed8fa5f359
stfrancis2013-02-02d02t06.flac:a53e47909c6a76eb3718a7ca19ca17d6
stfrancis2013-02-02d02t07.flac:aa70af67d91988a2efb4a9fb6960d8ac
stfrancis2013-02-02d02t08.flac:e7e39f640a39953502d256c555610ca9
stfrancis2013-02-02d02t09.flac:ff21f210d7ce2dbbede37e6a00215718
stfrancis2013-02-02d02t10.flac:0299463a965ddb648a6b888991417c46
stfrancis2013-02-02d02t11.flac:05c030dd1bb6689e3383094642feeb01

Shntool

length expanded size cdr WAVE problems fmt ratio filename
0:38.68 6863180 B --- -- ---xx flac 0.4162 stfrancis2013-02-02d01t01.flac
6:28.21 68492636 B --- -- ---xx flac 0.5521 stfrancis2013-02-02d01t02.flac
6:13.55 65926604 B --- -- ---xx flac 0.5635 stfrancis2013-02-02d01t03.flac
3:54.49 41392892 B --- -- ---xx flac 0.5864 stfrancis2013-02-02d01t04.flac
4:50.70 51320684 B --- -- ---xx flac 0.5135 stfrancis2013-02-02d01t05.flac
4:49.40 51073724 B --- -- ---xx flac 0.5344 stfrancis2013-02-02d01t06.flac
5:30.20 58259084 B --- -- ---xx flac 0.5187 stfrancis2013-02-02d01t07.flac
4:35.43 48611180 B --- -- ---xx flac 0.5786 stfrancis2013-02-02d01t08.flac
7:41.02 81325148 B --- -- ---xx flac 0.4846 stfrancis2013-02-02d01t09.flac
7:34.31 80158556 B --- -- ---xx flac 0.5354 stfrancis2013-02-02d01t10.flac
7:49.25 82790444 B --- -- ---xx flac 0.5414 stfrancis2013-02-02d01t11.flac
3:46.73 40038140 B --- -- ---xx flac 0.5702 stfrancis2013-02-02d01t12.flac
1:33.24 16461692 B --- -- ---xx flac 0.4674 stfrancis2013-02-02d02t01.flac
5:43.69 60667532 B --- -- ---xx flac 0.5259 stfrancis2013-02-02d02t02.flac
3:15.71 34565036 B --- -- ---xx flac 0.5123 stfrancis2013-02-02d02t03.flac
2:43.20 28800284 B --- -- ---xx flac 0.5721 stfrancis2013-02-02d02t04.flac
1:17.54 13709852 B --- -- ---xx flac 0.5581 stfrancis2013-02-02d02t05.flac
0:51.04 9005852 B --- -- ---xx flac 0.4844 stfrancis2013-02-02d02t06.flac
11:53.16 125810876 B --- -- ---xx flac 0.5506 stfrancis2013-02-02d02t07.flac
15:37.34 165366812 B --- -- ---xx flac 0.5945 stfrancis2013-02-02d02t08.flac
1:20.58 14248460 B --- -- ---xx flac 0.4219 stfrancis2013-02-02d02t09.flac
6:47.25 71853644 B --- -- ---xx flac 0.4990 stfrancis2013-02-02d02t10.flac
10:07.61 107218316 B --- -- ---xx flac 0.5653 stfrancis2013-02-02d02t11.flac
125:05.33 1323960628 B 0.5438 (23 files)




Checksumsstfrancis2013-02-02d01t01.flac:8d22e0dfa09ff8a4bb10ee1c433ec9bd
stfrancis2013-02-02d01t02.flac:beb50109bf2255adbde01dcf22e6db2a
stfrancis2013-02-02d01t03.flac:33f77c10f0aa7076a1c94b7ec886c041
stfrancis2013-02-02d01t04.flac:74f1fba739373d453acbcf78cdaa740d
stfrancis2013-02-02d01t05.flac:807b2e9eb68df0c8327b338f1f7f8b0e
stfrancis2013-02-02d01t06.flac:5c0a0044db1c6947231ae4962e7d6ff5
stfrancis2013-02-02d01t07.flac:d801797c8b46b866531ec8eb2e3178ce
stfrancis2013-02-02d01t08.flac:a0aa7385aad56b9fa5df1e853ebc56fa
stfrancis2013-02-02d01t09.flac:7b0f68cb5fc2291ffe66cad29716cb43
stfrancis2013-02-02d01t10.flac:6a7c77d21cc08b27c99714c157fe829e
stfrancis2013-02-02d01t11.flac:c3a07fc2670de3e2e5cfbf6633d24616
stfrancis2013-02-02d01t12.flac:601491a4afc64712a584f5c6deae6b83
stfrancis2013-02-02d02t01.flac:17ae2765b40dada67683adb4bce10c3a
stfrancis2013-02-02d02t02.flac:ca16de5428b6e74a160fb75c313fc311
stfrancis2013-02-02d02t03.flac:433aedeae7ad65b35d28dd5ae4f61230
stfrancis2013-02-02d02t04.flac:d2bd6bfa6c8e5f6ee9fe982405e7e13f
stfrancis2013-02-02d02t05.flac:f245a7dcf9ce27dc576491ed8fa5f359
stfrancis2013-02-02d02t06.flac:a53e47909c6a76eb3718a7ca19ca17d6
stfrancis2013-02-02d02t07.flac:aa70af67d91988a2efb4a9fb6960d8ac
stfrancis2013-02-02d02t08.flac:e7e39f640a39953502d256c555610ca9
stfrancis2013-02-02d02t09.flac:ff21f210d7ce2dbbede37e6a00215718
stfrancis2013-02-02d02t10.flac:0299463a965ddb648a6b888991417c46
stfrancis2013-02-02d02t11.flac:05c030dd1bb6689e3383094642feeb01
TypeOther
Last seederLast activity 7:18 ago
Size686.57 MB (719921236 Bytes)
Added2013-02-03 16:16:56
Views0
Hits183
Snatched35 times
Upped byzmanatl
Num files
[See full list]
24 files
Peers
[See full list]
1 seeder, 0 leechers = 1 peer total

Add a comment

bvaz 2013-02-03 16:38:31
thanks Z. I really enjoyed what i heard of this last night
Myco69 2013-02-03 21:17:17
Thanks for clueing me in on these guys Z! I have a new obsession to feed now. ;)
zmanatl 2013-02-03 21:20:26
What a great night of new music for me. Pete and I drove up to Athens and were not disappointed as both bands delivered! Here are a few half decent videos I took to give you an idea of what we got to see:

Bubble >
Stackn' Stones:
http://youtu.be/BizI55m9zZ4

Coming Home:
http://youtu.be/v5eqDebwiY4

Georgia Peach >
Back On The Train:
http://youtu.be/vCiDMlp_BA0

Helpless:
http://youtu.be/BrzOsxWucZg

Late In The Evening >
Drum Solo >
Late In The Evening:
http://youtu.be/cp_5n6e5bW0

Mine Eyes:
http://youtu.be/mmcn1mg8PmI

Oh My Heart
Cajun Drawl:
http://youtu.be/zTP_ClJuzWk

Songs Been Sung >
Burned By The Sea:
http://youtu.be/p7Pr6mLNZ-g

The River:
http://youtu.be/9DrQaRcxGxY

Wasting Time:
http://youtu.be/-0yrmz7kPbQ


spikes852004 2013-02-03 22:40:35
Thanks Z-man, been seeing and listening to the 2 brothers on percussion for years.

Add a comment


http://etree.org : http://db.etree.org : http://forums.etree.org : http://wiki.etree.org : Legal : RSS Feed

Contents designed & maintained by the etree.org volunteers
1998-2014, etree.org, except where noted. All Rights Reserved.
Read our terms of service and privacy guidelines