bt.etree.org
etree.org Community Bittorrent Tracker
ArtistOther
ShowZydefunk Northside Tavern Atlanta, Georgia 2/1/2013 (Schoeps CCM4V'S FOB)
Report this as
non-Trade-Friendly
Email us
Torrentzydefunk2013-02-01.flac16.torrent (click to download)
Downloads aszydefunk2013-02-01.flac16
Info hashc561a59ce1181cdb20509b311211963222c4e50e
DescriptionZydefunk
Northside Tavern
Atlanta, Georgia
2/1/2013

Source: Schoeps CCM4V'S(din)>Lunatec V2>Benchmark AD2K>
Sound Devices 722 (24/48)
BFOB/DFC/KFC/ZFC/AARP 12' From Stage, 7' High
DSP: Sound Devices 722>Sound Forge 9.0>CD Wave>flac(16)
Recorded By: Z-Man
Seeded By: Z-Man

Disc I 2nd And 3rd Set

01 *?
02 ? >
03 Daydreamin' About You >
04 Waitin' For My Yaya
05 #Rendevous With The Blues
3rd Set:
06 Tuning/Banter
07 King Cake
08 ?
09 ?
10 ? >
11 Drum Solo >
12 ?

* Started My Gear At Tail End Of The Song
# With Brian Hall On Bass

Charlie Wooton - Bass And Vocals
Jimmy Hall - Saxophone, Harmonica, And Vocals
Yonrico Scott - Drums
Marcus James Henderson - Saxophone
Andre Terrio - Guitar
Adam Holiday - Keyboards

Flac Fingerprint

zydefunk2013-02-01d01t01.flac:b48ce47136c31b57ad9e822599e78b27
zydefunk2013-02-01d01t02.flac:932897af7c2bac53481d5612763aefd5
zydefunk2013-02-01d01t03.flac:4dc99f7ed2f4108fc94ed88a8f011801
zydefunk2013-02-01d01t04.flac:e0bbdef8b20aa38dc0d3776ed3d38e52
zydefunk2013-02-01d01t05.flac:48c7e2575432a80c80de49a35af688d9
zydefunk2013-02-01d01t06.flac:11af808464cd5edee9705886e7f47d0b
zydefunk2013-02-01d01t07.flac:570c5a45b24826c343db738371205897
zydefunk2013-02-01d01t08.flac:eae5cdf4bcdf893abe3786139ede80bb
zydefunk2013-02-01d01t09.flac:3b9dcad5bfa483c7121e9f7a777fe27b
zydefunk2013-02-01d01t10.flac:7d3ebe5ef0251ec3d577a16291986d7f
zydefunk2013-02-01d01t11.flac:e909284f814677fa3a747046dddb106d
zydefunk2013-02-01d01t12.flac:b620177a43f47403b416f1b874b57ace

Shntool

length expanded size cdr WAVE problems fmt ratio filename
1:17.38 13672220 B --- -- ---xx flac 0.5259 zydefunk2013-02-01d01t01.flac
7:21.07 77808908 B --- -- ---xx flac 0.5384 zydefunk2013-02-01d01t02.flac
6:32.11 69174716 B --- -- ---xx flac 0.5487 zydefunk2013-02-01d01t03.flac
10:51.66 114991676 B --- -- ---xx flac 0.5342 zydefunk2013-02-01d01t04.flac
4:12.46 44561036 B --- -- ---xx flac 0.4966 zydefunk2013-02-01d01t05.flac
1:30.16 15913676 B --- -- ---xx flac 0.3335 zydefunk2013-02-01d01t06.flac
7:13.59 76520012 B --- -- ---xx flac 0.5343 zydefunk2013-02-01d01t07.flac
9:58.03 105494300 B --- -- ---xx flac 0.5074 zydefunk2013-02-01d01t08.flac
6:22.65 67537724 B --- -- ---xx flac 0.5432 zydefunk2013-02-01d01t09.flac
8:43.58 92393660 B --- -- ---xx flac 0.5324 zydefunk2013-02-01d01t10.flac
1:28.04 15532652 B --- -- ---xx flac 0.4989 zydefunk2013-02-01d01t11.flac
3:36.14 38135372 B --- -- ---xx flac 0.5184 zydefunk2013-02-01d01t12.flac
69:08.12 731735952 B 0.5244 (12 files)























Checksumszydefunk2013-02-01d01t01.flac:b48ce47136c31b57ad9e822599e78b27<br />
zydefunk2013-02-01d01t02.flac:932897af7c2bac53481d5612763aefd5<br />
zydefunk2013-02-01d01t03.flac:4dc99f7ed2f4108fc94ed88a8f011801<br />
zydefunk2013-02-01d01t04.flac:e0bbdef8b20aa38dc0d3776ed3d38e52<br />
zydefunk2013-02-01d01t05.flac:48c7e2575432a80c80de49a35af688d9<br />
zydefunk2013-02-01d01t06.flac:11af808464cd5edee9705886e7f47d0b<br />
zydefunk2013-02-01d01t07.flac:570c5a45b24826c343db738371205897<br />
zydefunk2013-02-01d01t08.flac:eae5cdf4bcdf893abe3786139ede80bb<br />
zydefunk2013-02-01d01t09.flac:3b9dcad5bfa483c7121e9f7a777fe27b<br />
zydefunk2013-02-01d01t10.flac:7d3ebe5ef0251ec3d577a16291986d7f<br />
zydefunk2013-02-01d01t11.flac:e909284f814677fa3a747046dddb106d<br />
zydefunk2013-02-01d01t12.flac:b620177a43f47403b416f1b874b57ace
TypeOther
Last seederLast activity 4:55 ago
Size365.94 MB (383711788 Bytes)
Added2013-02-04 10:41:22
Views0
Hits178
Snatched42 times
Upped byzmanatl
Num files
[See full list]
13 files
Seeders
[Hide list]
2 Seeder(s)
ip:portclient
version
ul
bytes
dl
bytes
ratiocompleteul
rate
dl
rate
time
connected
time
left
idle
99.104.33.xxx:10989 μtorrent 3.4.2.0 0 B 0 B N/A 100.00%
N/A N/A 2:04:58 N/A 4:55
107.3.161.xxx:51413 0 B 0 B N/A 100.00%
N/A N/A 40:20 N/A 10:19
0 of 2 firewalled (0%) 100.00%
N/AN/A
Leechers
[Hide list]
0 Leecher(s)

Add a comment

ekoostikal 2013-02-04 19:09:42
Nice!! Thanks buddy
bigdaddybflo 2013-02-05 09:08:33
Get your Zydefunk on ! GO Z GO !
lahinch69 2013-02-07 08:52:08
This band is new to me. I like. Thanks for the share.

Add a comment


http://etree.org : http://db.etree.org : http://forums.etree.org : http://wiki.etree.org : Legal : RSS Feed

Contents designed & maintained by the etree.org volunteers
1998-2014, etree.org, except where noted. All Rights Reserved.
Read our terms of service and privacy guidelines