bt.etree.org
etree.org Community Bittorrent Tracker
ArtistGrateful Dead
Showgd82-10-10.110970.mtx.seamons.t-flac16
Report this as
non-Trade-Friendly
Email us
Torrentgd82-10-10.110970.mtx.seamons.ht02.t-flac16.torrent (click to download)
Downloads asgd82-10-10.110970.mtx.seamons.ht02.t-flac16
Info hashd2b1b98c8f7bbaf4deb3da1439d9977ba351b4db
db linkhttp://db.etree.org/shn/110970 | Show | Source
DescriptionThis is a tagged version of shnid: 110970

Grateful Dead
October 10, 1982
Frost Amphitheatre, Stanford U.
Palo Alto, CA


Jerry Garcia - Lead Guitar, Vocals
Mickey Hart - Drums
Bill Kreutzmann - Drums
Phil Lesh - Electric Bass, Vocals
Brent Mydland - Keyboards, Vocals
Bob Weir - Rhythm Guitar, Vocals


*Matrix*

-----------------------------------------------------------------
SBD (shnid=110628):

Recording Info:
SBD -> Cassette Master (TDK MA-R90/Dolby B) -> Cassette (JVC KD-V6/XLII-S90/Dolby C)

Transfer Info:
Cassette (Nakamichi DR-1/Dolby C) -> Sound Devices 744T (24bit/48k) ->
Adobe Audition v3.0 -> Samplitude Professional v11.1 -> FLAC/24
(1 DVD FLAC)

All Transfers and Mastering By Charlie Miller
charliemiller87@earthlink.net
November 8, 2010

[Cuts]:
Loser (0:00 - 0:04)
Crazy Fingers (6:29 - 6:47)
Drums (6:25 - 6:36)
The Wheel (5:02 - 5:09)

Notes:
-- This is a 24bit/48k source not suitable for CD's
-- This is an upgrade to all previous SBD sources
-- This transfer has been dolby decoded and pitch corrected
-- Thanks to David Gans for lending me his tapes
-- Thanks to Joe B. Jones for his help with the pitch correction

-----------------------------------------------------------------
AUD (shnid=93733):

Recording Info:
(FOB) Sony ECM-220T -> Cassette Master (Sony TC-D5M/Fuji Metal Tape/Dolby B)

Transfer Info:
Cassette Master (Nakamichi DR-1/Dolby B) -> Sound Devices 744T (24bit/88.2k) ->
Samplitude Professional v10.1 -> FLAC/24
(1 DVD FLAC)

All Transfers and Mastering By Charlie Miller
charliemiller87@earthlink.net
July 30, 2008

Notes:
-- Thanks to Rango Keshavan for lending me his masters

-----------------------------------------------------------------
Thank you to Charlie Miller for the 24-bit SBD and AUD transfers,
and to Rango Keshavan for recording the show.

Matrix by Hunter Seamons using Final Cut Pro (FLAC24 > AIFF > Final Cut >
AIFF CD tracking via Audacity (w/dither) > FLAC16 via xACT)
December 1, 2010
_________________________________________________________________________________

--Set 1--
101-d1t01 - Bill Graham Intro
102-d1t02 - New Minglewood Blues ->
103-d1t03 - Sugaree ->
104-d1t04 - Little Red Rooster
105-d1t05 - Tennessee Jed
106-d1t06 - Cassidy
107-d1t07 - Loser
108-d1t08 - Far From Me ->
109-d1t09 - Looks Like Rain ->
110-d1t10 - China Cat Sunflower ->
111-d1t11 - I Know You Rider

--Set 2--
201-d2t01 - Tuning
202-d2t02 - Playing in the Band ->
203-d2t03 - Crazy Fingers ->
204-d2t04 - Lost Sailor ->
205-d2t05 - Saint of Circumstance ->
206-d2t06 - Touch of Grey ->
207-d2t07 - Drums ->
208-d3t01 - Space ->
209-d3t02 - The Wheel ->
210-d3t03 - Throwing Stones ->
211-d3t04 - Not Fade Away ->
212-d3t05 - Black Peter ->
213-d3t06 - Sugar Magnolia

--Encore--
214-d3t07 - (I can't Get No) Satisfaction ->
215-d3t08 - It's All Over Now, Baby Blue
_________________________________________________________________________________

Tagging notes:
Show information is embedded within the header of each flac file.
It will display on any player capable of directly playing flac files.
If converted to wav during processing, all tags will be stripped,
however audio data will remain unaffected.
If you must transcode to a lossy format, do so directly Flac > Lossy.
Use ffp to validate audio integrity.
Md5 values will change if tagging is altered.
B. Proctor 2-02-13
_________________________________________________________________________________

length expanded size cdr WAVE problems fmt ratio filename
1:47.11 18900716 B --- -- ---xx gd82-10-10d1t01.flac
7:25.50 78615644 B --- -- ---xx gd82-10-10d1t02.flac
10:11.16 107818076 B --- -- ---xx gd82-10-10d1t03.flac
8:25.61 89225516 B --- -- ---xx gd82-10-10d1t04.flac
9:30.45 100653884 B --- -- ---xx gd82-10-10d1t05.flac
6:20.61 67175516 B --- -- ---xx gd82-10-10d1t06.flac
7:28.24 79083692 B --- -- ---xx gd82-10-10d1t07.flac
4:16.17 45198428 B --- -- ---xx gd82-10-10d1t08.flac
8:50.48 93604940 B --- -- ---xx gd82-10-10d1t09.flac
5:54.05 62457404 B --- -- ---xx gd82-10-10d1t10.flac
6:13.22 65848988 B --- -- ---xx gd82-10-10d1t11.flac
2:27.47 26041388 B --- -- ---xx gd82-10-10d2t01.flac
7:16.60 77051564 B --- -- ---xx gd82-10-10d2t02.flac
11:03.49 117068492 B --- -- ---xx gd82-10-10d2t03.flac
7:25.10 78521564 B --- -- ---xx gd82-10-10d2t04.flac
7:01.30 74335004 B --- -- ---xx gd82-10-10d2t05.flac
7:18.32 77338508 B --- -- ---xx gd82-10-10d2t06.flac
8:17.01 87673196 B --- -- ---xx gd82-10-10d2t07.flac
6:46.45 71724284 B --- -- ---xx gd82-10-10d3t01.flac
5:15.38 55655420 B --- -- ---xx gd82-10-10d3t02.flac
7:45.51 82145996 B --- -- ---xx gd82-10-10d3t03.flac
4:42.65 49897724 B --- -- ---xx gd82-10-10d3t04.flac
8:12.33 86866460 B --- -- ---xx gd82-10-10d3t05.flac
10:49.70 114648284 B --- -- ---xx gd82-10-10d3t06.flac
6:20.27 67095548 B --- -- ---xx gd82-10-10d3t07.flac
7:12.14 76237772 B --- -- ---xx gd82-10-10d3t08.flac
184:19.32 1950884008 B 0.6307 (26 files)
Checksumsgd82-10-10d1t01.flac:bf98280f276a03b777df2f46794aed02
gd82-10-10d1t02.flac:4c8e420fc4eb7a3c30f9197d67cccfff
gd82-10-10d1t03.flac:737df15bb93f4a3c76339bf09d17f331
gd82-10-10d1t04.flac:d7040193eb5eafad9235a2e50d791c89
gd82-10-10d1t05.flac:6e241fdfa2386ef274ef45e3c70175bc
gd82-10-10d1t06.flac:c1b643371ea649dbe2793bb5d0ffbf00
gd82-10-10d1t07.flac:db5c23ddb69af09edc8821218580e9a5
gd82-10-10d1t08.flac:7153c3c2e96863e1573ec14c4a65ace2
gd82-10-10d1t09.flac:c42198b1eedb5120d9cad95cb7a8fc9e
gd82-10-10d1t10.flac:a056d86aa7b59f1d9d21c0ffb30cbc6c
gd82-10-10d1t11.flac:ffc93801cd4586c399e660e68afebad8
gd82-10-10d2t01.flac:98defc3c5efcb49b3f8cc82bbd25dfad
gd82-10-10d2t02.flac:1fb8d9390eaea01fed0e3b6bb1712d8f
gd82-10-10d2t03.flac:0baf24d5b2fee3703265f532ba440195
gd82-10-10d2t04.flac:ed1721321ea723a4bffd8e6ac5f34d33
gd82-10-10d2t05.flac:1ba45f26f731cb111f35300a14ba8ec1
gd82-10-10d2t06.flac:e0881604feb8d475b37b3cdb8a3100eb
gd82-10-10d2t07.flac:1026dd2edebe9ea6149c0af8fb1ed317
gd82-10-10d3t01.flac:bea61473e8311ffd5c39625eb959a3e0
gd82-10-10d3t02.flac:691732d2dc8fb5facbb9245112bb8d13
gd82-10-10d3t03.flac:e15d3d425597d241a2dfd2ce10ea0319
gd82-10-10d3t04.flac:505b706e9d41ad1b5a8c726a33f84d20
gd82-10-10d3t05.flac:ff0abde97ed2f7fa20afe65faaf1aa89
gd82-10-10d3t06.flac:c790ccc7c9f3eedd64daecef55cdf83e
gd82-10-10d3t07.flac:7de98a94d824381df6708179203fe53d
gd82-10-10d3t08.flac:10e7503c28d97f83890febea08498d5f
TypeGrateful Dead
Last seederLast activity 11:31 ago
Size1.149 GB (1234097886 Bytes)
Added2013-02-05 06:15:23
Views0
Hits509
Snatched282 times
Upped bygermain
Num files
[See full list]
34 files
Peers
[See full list]
1 seeder, 0 leechers = 1 peer total

Add a comment

hseamons 2013-02-05 12:27:16
http://fc06.deviantart.net/fs70/f/2010/343/3/9/ht_vol__02__front_1_by_hseamons-d2p2gr7.jpg

http://fc02.deviantart.net/fs71/f/2010/343/1/1/ht_vol__02__front_2_by_hseamons-d2p2h4b.jpg

http://fc05.deviantart.net/fs70/f/2010/343/4/0/ht_vol__02__back_by_hseamons-d2p2h9x.jpg

http://fc00.deviantart.net/fs70/f/2010/343/2/a/ht_vol__02__booklet_cover_by_hseamons-d2p2hef.jpg

http://fc05.deviantart.net/fs71/f/2010/343/8/1/ht_vol__02__booklet_contents_by_hseamons-d2p2hit.jpg



http://hseamons.deviantart.com



http://www.facebook.com/pages/Hunters-Trix/130816623629200
Lucifer Childs 2013-02-05 15:09:42
Much Thanks! I love this show
rockymtnryan 2013-02-05 17:35:18
Killer show, thanks Hunter!
mmwarchives 2013-02-07 10:38:47
Thanks. Hey Hunter...have these 2 new takes on 10/10/82(both the 16 & 24 bit) now made shnid=92058 obselete??
hseamons 2013-02-07 13:16:31
Pretty much - better package all around.....
WRBzWorld 2013-02-10 13:32:52
Thank you. Always appreciate the Seamons stamp of quality.
tapertom 2013-05-07 00:15:51
Sugar Mag's from hell!!!!!!!!!!!!

Add a comment


http://etree.org : http://db.etree.org : http://forums.etree.org : http://wiki.etree.org : Legal : RSS Feed

Contents designed & maintained by the etree.org volunteers
1998-2014, etree.org, except where noted. All Rights Reserved.
Read our terms of service and privacy guidelines