bt.etree.org
etree.org Community Bittorrent Tracker
ArtistGrateful Dead
Showgd82-10-10.110744.mtx.seamons.t-flac24
Report this as
non-Trade-Friendly
Email us
Torrentgd82-10-10.110744.mtx.seamons.t-flac24.torrent (click to download)
Downloads asgd82-10-10.110744.mtx.seamons.t-flac24
Info hash2df0de1cf47d79c424a36899e8857545d7560e67
db linkhttp://db.etree.org/shn/110744 | Show | Source
DescriptionThis a tagged version of shnid: 110744

Grateful Dead
October 10, 1982
Frost Amphitheatre, Stanford U.
Palo Alto, CA

Jerry Garcia - Lead Guitar, Vocals
Mickey Hart - Drums
Bill Kreutzmann - Drums
Phil Lesh - Electric Bass, Vocals
Brent Mydland - Keyboards, Vocals
Bob Weir - Rhythm Guitar, Vocals

***Full 24 Bit Depth Matrix at 48 kHz Rate***
-----------------------------------------------------------------
SBD (shnid=110628):

Recording Info:
SBD -> Cassette Master (TDK MA-R90/Dolby B) ->
Cassette (JVC KD-V6/XLII-S90/Dolby C)

Transfer Info:
Cassette (Nakamichi DR-1/Dolby C) -> Sound Devices 744T (24bit/48k) ->
Adobe Audition v3.0 -> Samplitude Professional v11.1 -> FLAC/24
(1 DVD FLAC)

All Transfers and Mastering By Charlie Miller
charliemiller87@earthlink.net
November 8, 2010

[Cuts]:
Loser (0:00 - 0:04)
Crazy Fingers (6:29 - 6:47)
Drums (6:25 - 6:36)
The Wheel (5:02 - 5:09)

Notes:
-- This is a 24bit/48k source not suitable for CD's
-- This is an upgrade to all previous SBD sources
-- This transfer has been dolby decoded and pitch corrected
-- Thanks to David Gans for lending me his tapes
-- Thanks to Joe B. Jones for his help with the pitch correction

[Encore tracks were approximately 3% fast.]

-----------------------------------------------------------------
AUD (shnid=93733):

Recording Info:
(FOB) Sony ECM-220T -> Cassette Master (Sony TC-D5M/Fuji Metal Tape/Dolby B)

Transfer Info:
Cassette Master (Nakamichi DR-1/Dolby B) ->Sound Devices 744T (24bit/88.2k)->
Samplitude Professional v10.1 -> FLAC/24
(1 DVD FLAC)

All Transfers and Mastering By Charlie Miller
charliemiller87@earthlink.net
July 30, 2008

Notes:
-- Thanks to Rango Keshavan for lending me his masters

-----------------------------------------------------------------
Thank you to Charlie Miller for the 24-bit SBD and AUD transfers,
and to Rango Keshavan for recording the show.

Matrix by Hunter Seamons using Final Cut Pro (FLAC24 > AIFF > Final Cut >
AIFF tracking via Audacity > FLAC24 via xACT)
November 19, 2010
_________________________________________________________________________________

--Set 1--
101-s1t01 - Bill Graham Intro
102-s1t02 - New Minglewood Blues ->
103-s1t03 - Sugaree ->
104-s1t04 - Little Red Rooster
105-s1t05 - Tennessee Jed
106-s1t06 - Cassidy
107-s1t07 - Loser
108-s1t08 - Far From Me ->
109-s1t09 - Looks Like Rain ->
110-s1t10 - China Cat Sunflower ->
111-s1t11 - I Know You Rider

--Set 2--
201-s2t01 - Tuning
202-s2t02 - Playing in the Band ->
203-s2t03 - Crazy Fingers ->
204-s2t04 - Lost Sailor ->
205-s2t05 - Saint of Circumstance ->
206-s2t06 - Touch of Grey ->
207-s2t07 - Drums ->
208-s2t08 - Space ->
209-s2t09 - The Wheel ->
210-s2t10 - Throwing Stones ->
211-s2t11 - Not Fade Away ->
212-s2t12 - Black Peter ->
213-s2t13 - Sugar Magnolia

--Encore--
214-s2t14 - (I can't Get No) Satisfaction ->
215-s2t15 - It's All Over Now, Baby Blue
_________________________________________________________________________________

Notes:
1) First time mixing two 24-bit sources. 24-bit is better than 16-bit.
_________________________________________________________________________________

Tagging notes:
Show information is embedded within the header of each flac file.
It will display on any player capable of directly playing flac files.
If converted to wav during processing, all tags will be stripped,
however audio data will remain unaffected.
If you must transcode to a lossy format, do so directly Flac > Lossy.
Use ffp to validate audio integrity.
Md5 values will change if tagging is altered.
B. Proctor 4-09-11
_________________________________________________________________________________


length expanded size cdr WAVE problems fmt ratio filename
1:47.067 30835244 B cxx -- ---xx gd82-10-10s1t01.flac
7:25.733 128371244 B cxx -- ---xx gd82-10-10s1t02.flac
10:11.213 176029484 B cxx -- ---xx gd82-10-10s1t03.flac
8:25.773 145662764 B cxx -- ---xx gd82-10-10s1t04.flac
9:30.640 164344364 B cxx -- ---xx gd82-10-10s1t05.flac
6:20.800 109670444 B cxx -- ---xx gd82-10-10s1t06.flac
7:28.320 129116204 B cxx -- ---xx gd82-10-10s1t07.flac
4:16.307 73816364 B cxx -- ---xx gd82-10-10s1t08.flac
8:50.680 152835884 B cxx -- ---xx gd82-10-10s1t09.flac
5:53.987 101948204 B cxx -- ---xx gd82-10-10s1t10.flac
6:13.280 107504684 B cxx -- ---xx gd82-10-10s1t11.flac
2:27.627 42516524 B cxx -- ---xx gd82-10-10s2t01.flac
7:16.787 125794604 B cxx -- ---xx gd82-10-10s2t02.flac
11:03.627 191124524 B cxx -- ---xx gd82-10-10s2t03.flac
7:25.147 128202284 B cxx -- ---xx gd82-10-10s2t04.flac
7:01.427 121370924 B cxx -- ---xx gd82-10-10s2t05.flac
7:18.427 126266924 B cxx -- ---xx gd82-10-10s2t06.flac
8:17.013 143139884 B cxx -- ---xx gd82-10-10s2t07.flac
6:46.613 117104684 B cxx -- ---xx gd82-10-10s2t08.flac
5:15.520 90869804 B cxx -- ---xx gd82-10-10s2t09.flac
7:45.600 134092844 B cxx -- ---xx gd82-10-10s2t10.flac
4:42.920 81481004 B cxx -- ---xx gd82-10-10s2t11.flac
8:12.440 141822764 B cxx -- ---xx gd82-10-10s2t12.flac
10:49.933 187180844 B cxx -- ---xx gd82-10-10s2t13.flac
6:20.373 109547564 B cxx -- ---xx gd82-10-10s2t14.flac
7:12.173 124465964 B cxx -- ---xx gd82-10-10s2t15.flac
184:19.427 3185116024 B 0.8681 (26 files)
Checksumsgd82-10-10s1t01.flac:a8104d2d0c916ccc3eace55d1c3b0540<br />
gd82-10-10s1t02.flac:cbdc2d8f392dfd1c008fdf935fe928f1<br />
gd82-10-10s1t03.flac:d885326033a993434219b06f699dc12f<br />
gd82-10-10s1t04.flac:6371f909a19593ba5dcac225793d6240<br />
gd82-10-10s1t05.flac:7c2c7a0deb49bec3d36d88177b5d436a<br />
gd82-10-10s1t06.flac:9f3f89c2f1908b8a8ad35a6c121d6fc4<br />
gd82-10-10s1t07.flac:137b4acbe6e5b7393dac41407b944fd2<br />
gd82-10-10s1t08.flac:6bc6c0ceedfe0fcf291cebbea7598d04<br />
gd82-10-10s1t09.flac:9daa38934d9ace8c93e83c752c76ce6d<br />
gd82-10-10s1t10.flac:744e98294c1f01aee9a003c4cc7109ea<br />
gd82-10-10s1t11.flac:b8596bd23ddfd341b41542693781a190<br />
gd82-10-10s2t01.flac:0a9e8b433f96d93b7dfb17fc7506fa08<br />
gd82-10-10s2t02.flac:8adc8b71b7fcdd05f9c9cd2e16885609<br />
gd82-10-10s2t03.flac:f7729d9870141fac99678db36b2de1fb<br />
gd82-10-10s2t04.flac:5b4a3fa3c0d3cadf6f576991ea248765<br />
gd82-10-10s2t05.flac:6dcc17fc8dfa36e0890fc000cd49b9b4<br />
gd82-10-10s2t06.flac:763ef6924b308506abeaf950895a9500<br />
gd82-10-10s2t07.flac:221ddd27ae77dce20279f92bba7c3e74<br />
gd82-10-10s2t08.flac:b62b9cfd4a404d469e9d49e404fb87f1<br />
gd82-10-10s2t09.flac:a6fbae8936bcdcc09a3ddac2cd362856<br />
gd82-10-10s2t10.flac:f75e5197de94cecf9840342a48e0ba9e<br />
gd82-10-10s2t11.flac:1173e7bad2bcdce349384ef63db053a8<br />
gd82-10-10s2t12.flac:d66968fb58fcad1a6c0f1eacccd59aed<br />
gd82-10-10s2t13.flac:4952299496778e92b01a5bb67269b5e8<br />
gd82-10-10s2t14.flac:14d20eced141343d7c371e53dc9098c4<br />
gd82-10-10s2t15.flac:b034a49f82934c35fa3fc4aeddc689eb
TypeGrateful Dead
Last seederLast activity 2 days, 06:30:15 ago
Size2.575 GB (2765144270 Bytes)
Added2013-02-05 06:21:07
Views0
Hits375
Snatched137 times
Upped bygermain
Num files30 files
File List
[Hide list]
filenamesizemd5
82-10-10 - Frost Amphitheatre, Stanford U...jpg119.4 kBN/A
gd82-10-10.110744.tagged.md51.5 kBN/A
gd82-10-10.110744.txt5.7 kBN/A
gd82-10-10.mtx.seamons.fingerprint.ffp1.4 kBN/A
gd82-10-10s1t01.flac20.03 MBN/A
gd82-10-10s1t02.flac111.47 MBN/A
gd82-10-10s1t03.flac152.48 MBN/A
gd82-10-10s1t04.flac124.12 MBN/A
gd82-10-10s1t05.flac131.20 MBN/A
gd82-10-10s1t06.flac92.27 MBN/A
gd82-10-10s1t07.flac107.38 MBN/A
gd82-10-10s1t08.flac63.05 MBN/A
gd82-10-10s1t09.flac124.99 MBN/A
gd82-10-10s1t10.flac87.60 MBN/A
gd82-10-10s1t11.flac97.35 MBN/A
gd82-10-10s2t01.flac26.56 MBN/A
gd82-10-10s2t02.flac106.99 MBN/A
gd82-10-10s2t03.flac159.15 MBN/A
gd82-10-10s2t04.flac100.10 MBN/A
gd82-10-10s2t05.flac108.25 MBN/A
gd82-10-10s2t06.flac114.53 MBN/A
gd82-10-10s2t07.flac96.67 MBN/A
gd82-10-10s2t08.flac76.02 MBN/A
gd82-10-10s2t09.flac75.50 MBN/A
gd82-10-10s2t10.flac112.76 MBN/A
gd82-10-10s2t11.flac69.80 MBN/A
gd82-10-10s2t12.flac113.62 MBN/A
gd82-10-10s2t13.flac165.08 MBN/A
gd82-10-10s2t14.flac98.46 MBN/A
gd82-10-10s2t15.flac101.50 MBN/A
Peers
[See full list]
1 seeder, 0 leechers = 1 peer total

Add a comment

cvillehick 2013-02-05 23:21:37
not sure that it matters, but the torrent title and the date of the show differ by a decade, or a slip of the finger. i know you're attempting a massive overhaul of t-flacs, and i hope the appreciation of your continued diligence is recognized for the benefit of the long term.

Add a comment


http://etree.org : http://db.etree.org : http://forums.etree.org : http://wiki.etree.org : Legal : RSS Feed

Contents designed & maintained by the etree.org volunteers
1998-2014, etree.org, except where noted. All Rights Reserved.
Read our terms of service and privacy guidelines