bt.etree.org
etree.org Community Bittorrent Tracker
ArtistOther
ShowRua Seis Eclipse Di Luna Atlanta, Georgia 2/4/2013 (Schoeps CCM4V'S FOB)
Report this as
non-Trade-Friendly
Email us
Torrentruaseis2013-02-04.flac16.torrent (click to download)
Downloads asruaseis2013-02-04.flac16
Info hash7f0b052cf3b1a14151de04cad2a1aed8ce4bcd86
DescriptionRua Seis
Eclipse di Luna
Atlanta, Georgia
2/4/2013

Source: Schoeps CCM4V'S(din)>Lunatec V2>Benchmark AD2K>
Sound Devices 722 (24/48)
FOB/DFC/KFC/ZFC/AARP Stage Lip, 6 1/2' High
DSP: Sound Devices 722>Sound Forge 9.0>CD Wave>flac(16)
Recorded By: Z-Man
Seeded By: Z-Man

Disc I 1st Set

01 Fato Consumado
02 Chega De Saudade
03 O Show Deve Continuar
04 ? >
05 ?

Disc II 2nd Set

01 ?
02 ?
03 ? >
04 ?
05 Siento
06 Corosone

Flac Fingerprint

ruaseis2013-02-04d01t01.flac:a60f206781f38ca0a2c0973a1c42b250
ruaseis2013-02-04d01t02.flac:43349063a2f4abc467cf591adb758946
ruaseis2013-02-04d01t03.flac:d9fb799b94ae79a284d78f2b5b05d53d
ruaseis2013-02-04d01t04.flac:71ca7a516590127f641469de757cc88c
ruaseis2013-02-04d01t05.flac:3072103d206db60d84d49ff05df52c71
ruaseis2013-02-04d02t01.flac:de3a4899648befd5f3ab32fd410150c4
ruaseis2013-02-04d02t02.flac:a08a7b449c5d9a7273c447ea93bc8bd8
ruaseis2013-02-04d02t03.flac:6b0eee4b4e2c121a511e10c5a08d051e
ruaseis2013-02-04d02t04.flac:f65225334e0b906f8a6e90dcdc4fc9e4
ruaseis2013-02-04d02t05.flac:64d57d6e2e961768cc81790a454bda4f
ruaseis2013-02-04d02t06.flac:1de046358dcea31feb49366ef745fac6

Shntool

length expanded size cdr WAVE problems fmt ratio filename
4:56.54 52341452 B --- -- ---xx flac 0.5407 ruaseis2013-02-04d01t01.flac
4:10.22 44151788 B --- -- ---xx flac 0.4929 ruaseis2013-02-04d01t02.flac
0:45.11 7963916 B --- -- ---xx flac 0.4217 ruaseis2013-02-04d01t03.flac
18:49.05 199167404 B --- -- ---xx flac 0.5791 ruaseis2013-02-04d01t04.flac
7:44.62 81995468 B --- -- ---xx flac 0.6063 ruaseis2013-02-04d01t05.flac
7:43.25 81732044 B --- -- ---xx flac 0.5402 ruaseis2013-02-04d02t01.flac
12:34.71 133172636 B --- -- ---xx flac 0.5912 ruaseis2013-02-04d02t02.flac
6:47.41 71891276 B --- -- ---xx flac 0.6350 ruaseis2013-02-04d02t03.flac
3:53.21 41150636 B --- -- ---xx flac 0.5480 ruaseis2013-02-04d02t04.flac
7:07.40 75416924 B --- -- ---xx flac 0.5921 ruaseis2013-02-04d02t05.flac
6:53.12 72881468 B --- -- ---xx flac 0.5700 ruaseis2013-02-04d02t06.flac
81:25.64 861865012 B 0.5752 (11 files)






























Checksumsruaseis2013-02-04d01t01.flac:a60f206781f38ca0a2c0973a1c42b250
ruaseis2013-02-04d01t02.flac:43349063a2f4abc467cf591adb758946
ruaseis2013-02-04d01t03.flac:d9fb799b94ae79a284d78f2b5b05d53d
ruaseis2013-02-04d01t04.flac:71ca7a516590127f641469de757cc88c
ruaseis2013-02-04d01t05.flac:3072103d206db60d84d49ff05df52c71
ruaseis2013-02-04d02t01.flac:de3a4899648befd5f3ab32fd410150c4
ruaseis2013-02-04d02t02.flac:a08a7b449c5d9a7273c447ea93bc8bd8
ruaseis2013-02-04d02t03.flac:6b0eee4b4e2c121a511e10c5a08d051e
ruaseis2013-02-04d02t04.flac:f65225334e0b906f8a6e90dcdc4fc9e4
ruaseis2013-02-04d02t05.flac:64d57d6e2e961768cc81790a454bda4f
ruaseis2013-02-04d02t06.flac:1de046358dcea31feb49366ef745fac6
TypeOther
Last seederLast activity 168 days, 07:31:22 ago
Size472.77 MB (495739026 Bytes)
Added2013-02-05 23:34:53
Views0
Hits113
Snatched11 times
Upped byzmanatl
Num files12 files
File List
[Hide list]
filenamesizemd5
ruaseis2013-02-04d01t04.flac109.99 MBN/A
ruaseis2013-02-04d02t02.flac75.08 MBN/A
ruaseis2013-02-04d01t05.flac47.41 MBN/A
ruaseis2013-02-04d02t03.flac43.54 MBN/A
ruaseis2013-02-04d02t05.flac42.58 MBN/A
ruaseis2013-02-04d02t01.flac42.10 MBN/A
ruaseis2013-02-04d02t06.flac39.62 MBN/A
ruaseis2013-02-04d01t01.flac26.99 MBN/A
ruaseis2013-02-04d02t04.flac21.50 MBN/A
ruaseis2013-02-04d01t02.flac20.76 MBN/A
ruaseis2013-02-04d01t03.flac3.20 MBN/A
ruaseis2013-02-04.textfile.txt2.4 kBN/A
Peers
[See full list]
0 seeders, 1 leecher = 1 peer total

No comments yet

Add a comment


http://etree.org : http://db.etree.org : http://forums.etree.org : http://wiki.etree.org : Legal : RSS Feed

Contents designed & maintained by the etree.org volunteers
1998-2014, etree.org, except where noted. All Rights Reserved.
Read our terms of service and privacy guidelines