bt.etree.org
etree.org Community Bittorrent Tracker
ArtistOther
ShowTruett Lollis Band Darwin's Burgers Marietta, Georgia 2/4/2013 (Schoeps CCM4V'S FOB)
Report this as
non-Trade-Friendly
Email us
Torrenttruett2013-02-04.flac16.torrent (click to download)
Downloads astruett2013-02-04.flac16
Info hashe37dc4f151fb6d00b5e5f62bc7021b61581d2e89
DescriptionTruett Lollis Band
Darwin's Burger's
Marietta, Georgia
2/4/2013

Source: Schoeps CCM4V'S(din)>Lunatec V2>Benchmark AD2K>
Sound Devices 722 (24/48)
FOB/DFC/KFC/ZFC/AARP Stage Lip, 6 1/2' High
DSP: Sound Devices 722>Sound Forge 9.0>CD Wave>flac(16)
Recorded By: Z-Man
Seeded By: Z-Man

Disc I

01 Introduction Of William A Yarborough/Banter
02 *?
03 *?
04 Banter/Tuning
05 *Use Me
06 *#Ain't No Sunshine

Disc II

01 Banter/Tuning
02 *#@Valerie
03 *Scandalous >
04 Bass And Drums >
05 *Scandalous
06 Banter/Call Outs
07 *#^Statesboro Blues
Abe Parker Solo Acoustic:
08 Little Sister (Cut In)
09 Set Me Free
10 Girl Put your Records On
11 Ain't No Mountain High Enough
12 Still The One

* With William A. Yarborough On Guitar
# With Brendan McMacken On Harmonica
@ With David Evans On Flute
^ With David Evans On Guitar

Flac Fingerprint

truett2013-02-04d01t01.flac:a16fa5782a092c3dcd18338438812e71
truett2013-02-04d01t02.flac:1e03c6076d3603e24769af170dd89fa4
truett2013-02-04d01t03.flac:9d2ef052654b2c19120d0c8710a776e2
truett2013-02-04d01t04.flac:d2a60966c035f90cbb9c509d0d93a00f
truett2013-02-04d01t05.flac:4f7f52f3c9ff5c3dbd58e873d1400d16
truett2013-02-04d01t06.flac:2dd10c8d47228983e26dfa69ba2e96fb
truett2013-02-04d02t01.flac:387fd2ad0b7b9933eeef23894c2e71f1
truett2013-02-04d02t02.flac:25e1c9a506bf1bb291093328d35394dd
truett2013-02-04d02t03.flac:c2f9032f65a15b0648b0654e2360a067
truett2013-02-04d02t04.flac:afda654a0863f015ec20ba1df57d6286
truett2013-02-04d02t05.flac:0d6903f6eeb26e86d98000aa9066fa72
truett2013-02-04d02t06.flac:674f069d12a56699a5015cd1e0778cf4
truett2013-02-04d02t07.flac:bd9eae99be7eee6eb18e75d6632af01f
truett2013-02-04d02t08.flac:14738abc4ee224e30f19df237c34e55b
truett2013-02-04d02t09.flac:b3a093ce672e29cc86ee00cb0cdda26d
truett2013-02-04d02t10.flac:2fddc258c26c9c4592796f63d1ceba38
truett2013-02-04d02t11.flac:24d3f5a53ce21652a05d726412b342e1
truett2013-02-04d02t12.flac:f340fca8886c1c4a824e1d745ca4b783

Shntool

length expanded size cdr WAVE problems fmt ratio filename
4:18.56 45642956 B --- -- ---xx flac 0.3935 truett2013-02-04d01t01.flac
5:29.71 58202636 B --- -- ---xx flac 0.5488 truett2013-02-04d01t02.flac
5:06.47 54088988 B --- -- ---xx flac 0.5814 truett2013-02-04d01t03.flac
2:25.31 25650956 B --- -- ---xx flac 0.3221 truett2013-02-04d01t04.flac
16:05.34 170306012 B --- -- ---xx flac 0.5345 truett2013-02-04d01t05.flac
6:41.63 70884620 B --- -- ---xx flac 0.4893 truett2013-02-04d01t06.flac
3:15.46 34506236 B --- -- ---xx flac 0.3586 truett2013-02-04d02t01.flac
9:24.22 99541388 B --- -- ---xx flac 0.5111 truett2013-02-04d02t02.flac
5:50.05 61751804 B --- -- ---xx flac 0.5664 truett2013-02-04d02t03.flac
2:01.04 21353852 B --- -- ---xx flac 0.5373 truett2013-02-04d02t04.flac
3:16.65 34727324 B --- -- ---xx flac 0.6027 truett2013-02-04d02t05.flac
1:54.59 20248412 B --- -- ---xx flac 0.3662 truett2013-02-04d02t06.flac
7:39.00 80967644 B --- -- ---xx flac 0.5348 truett2013-02-04d02t07.flac
1:31.41 16148876 B --- -- ---xx flac 0.4037 truett2013-02-04d02t08.flac
3:57.24 41863292 B --- -- ---xx flac 0.4457 truett2013-02-04d02t09.flac
5:06.50 54096044 B --- -- ---xx flac 0.4337 truett2013-02-04d02t10.flac
3:36.29 38170652 B --- -- ---xx flac 0.4899 truett2013-02-04d02t11.flac
4:53.09 51706412 B --- -- ---xx flac 0.4627 truett2013-02-04d02t12.flac
92:34.56 979858104 B 0.4980 (18 files)



















Checksumstruett2013-02-04d01t01.flac:a16fa5782a092c3dcd18338438812e71
truett2013-02-04d01t02.flac:1e03c6076d3603e24769af170dd89fa4
truett2013-02-04d01t03.flac:9d2ef052654b2c19120d0c8710a776e2
truett2013-02-04d01t04.flac:d2a60966c035f90cbb9c509d0d93a00f
truett2013-02-04d01t05.flac:4f7f52f3c9ff5c3dbd58e873d1400d16
truett2013-02-04d01t06.flac:2dd10c8d47228983e26dfa69ba2e96fb
truett2013-02-04d02t01.flac:387fd2ad0b7b9933eeef23894c2e71f1
truett2013-02-04d02t02.flac:25e1c9a506bf1bb291093328d35394dd
truett2013-02-04d02t03.flac:c2f9032f65a15b0648b0654e2360a067
truett2013-02-04d02t04.flac:afda654a0863f015ec20ba1df57d6286
truett2013-02-04d02t05.flac:0d6903f6eeb26e86d98000aa9066fa72
truett2013-02-04d02t06.flac:674f069d12a56699a5015cd1e0778cf4
truett2013-02-04d02t07.flac:bd9eae99be7eee6eb18e75d6632af01f
truett2013-02-04d02t08.flac:14738abc4ee224e30f19df237c34e55b
truett2013-02-04d02t09.flac:b3a093ce672e29cc86ee00cb0cdda26d
truett2013-02-04d02t10.flac:2fddc258c26c9c4592796f63d1ceba38
truett2013-02-04d02t11.flac:24d3f5a53ce21652a05d726412b342e1
truett2013-02-04d02t12.flac:f340fca8886c1c4a824e1d745ca4b783
TypeOther
Last seederLast activity 114 days, 08:47:49 ago
Size465.34 MB (487939494 Bytes)
Added2013-02-05 23:36:51
Views0
Hits126
Snatched8 times
Upped byzmanatl
Num files19 files
File List
[Hide list]
filenamesizemd5
truett2013-02-04d01t05.flac86.81 MBN/A
truett2013-02-04d02t02.flac48.52 MBN/A
truett2013-02-04d02t07.flac41.30 MBN/A
truett2013-02-04d02t03.flac33.35 MBN/A
truett2013-02-04d01t06.flac33.08 MBN/A
truett2013-02-04d01t02.flac30.46 MBN/A
truett2013-02-04d01t03.flac29.99 MBN/A
truett2013-02-04d02t12.flac22.81 MBN/A
truett2013-02-04d02t10.flac22.37 MBN/A
truett2013-02-04d02t05.flac19.96 MBN/A
truett2013-02-04d02t11.flac17.83 MBN/A
truett2013-02-04d02t09.flac17.79 MBN/A
truett2013-02-04d01t01.flac17.13 MBN/A
truett2013-02-04d02t01.flac11.80 MBN/A
truett2013-02-04d02t04.flac10.94 MBN/A
truett2013-02-04d01t04.flac7.88 MBN/A
truett2013-02-04d02t06.flac7.07 MBN/A
truett2013-02-04d02t08.flac6.22 MBN/A
truett2013-02-04.textfile.txt3.8 kBN/A
Peers
[See full list]
0 seeders, 1 leecher = 1 peer total

Add a comment

dorrcoq 2013-02-06 01:59:18
What happened, Z? You stop in for a burger (or 3) and a show broke out?
dfries 2013-02-06 17:49:46
the pulled pork nachos are good.

Add a comment


http://etree.org : http://db.etree.org : http://forums.etree.org : http://wiki.etree.org : Legal : RSS Feed

Contents designed & maintained by the etree.org volunteers
1998-2014, etree.org, except where noted. All Rights Reserved.
Read our terms of service and privacy guidelines