bt.etree.org
etree.org Community Bittorrent Tracker
ArtistOther
ShowRobert Montgomery Steve's Live Music Sandy Springs, Georgia 2/5/2013 (Schoeps CCM4V'S FOB)
Report this as
non-Trade-Friendly
Email us
Torrentrobert2013-02-05.flac16.torrent (click to download)
Downloads asrobert2013-02-05.flac16
Info hash01aaf77a173985d3425f83082400f17e9e2ade19
DescriptionRobert Montgomery
Steve's Live Music
Sandy Springs, Georgia
2/5/2013

Source: Schoeps CCM4V'S(din)>Lunatec V2>Benchmark AD2K>
Sound Devices 722 (24/48)
FOB/DFC/KFC/ZFC/AARP 7' From Stage, 6 1/2' High
DSP: Sound Devices 722>Sound Forge 9.0>CD Wave>flac(16)
Recorded By: Z-Man
Seeded By: Z-Man

Disc I

Georgia Crackers:

01 The Cackling Hen
02 Keep Your Gal At Home
03 Banter
04 Way Down In Georgia
05 Banter
06 Jim Sims - East Tennessee Blues
07 Banter
08 Dean And Judy Robinson - Farewell Trion
09 Banter
10 Stone Mountain Wobblers - I'll Rise When The Rooster Crows
11 John White And Doug Key - Cotton-Eyed Joe
12 Introduction Of Robert Montgomery
13 Old Rattler
14 Give Me Back My Five Dollars
15 Old Joe Clark
16 The Railroad Blues
17 Blue Night
18 How Many Biscuits Can You Eat

Disc II

01 Steamboat Whistle Blues
02 Get Along Home Cindy
03 Matthew 24
04 I Don't Love Nobody
05 The Arkansas Traveler
06 Honest Confession Is Good For The Soul
07 Georgia Music Banter
08 *Big River Blues
09 #Bring Up The Georgia Crackers/Banter
10 #In The Pines
11 #Mountain Dew
12 #Cumberland Gap
13 #Grand Ol' Opry
14 #Lonesome Road Blues/Goin' Down The Road Feelin' Bad
15 #Long Journey Home
16 #Sittin' On Top Of The World

* With Mick Kinney Of The Georgia Crackers On Fiddle
# With Georgia Crackers (Mick Kinney, Ken Johnson, And Chip Corbitt)

Flac Fingerprint

robert2013-02-05d01t01.flac:9fef43e5720d072fb8b169c5d496a50f
robert2013-02-05d01t02.flac:4647e859caa641af7d88e6aeb3e157e4
robert2013-02-05d01t03.flac:b55cf1a9364f3bce92d3c4a10ac1d2a1
robert2013-02-05d01t04.flac:07282c492f131418b9cd819fba5bc4de
robert2013-02-05d01t05.flac:03a348a7c923b9fb5403bed070e5dcee
robert2013-02-05d01t06.flac:61c799f84191305b084ee1f2b48d9734
robert2013-02-05d01t07.flac:ab2cece6e07b0a9807a1149e66c56798
robert2013-02-05d01t08.flac:2bb602d1d7a852c732f2c99c504e7d13
robert2013-02-05d01t09.flac:ac30b19bb68fecc5d07d18e7fd04cc02
robert2013-02-05d01t10.flac:159cd52fb2fd40a39db7045358f83388
robert2013-02-05d01t11.flac:309786cb409ef8e07c1c911c96da666f
robert2013-02-05d01t12.flac:1db6d0ca897138fcb22a53612a01b8a6
robert2013-02-05d01t13.flac:f6be293d17c5d4825cb4efed6434736d
robert2013-02-05d01t14.flac:3dcfbd2816b6cc3172f40b7f6871cf34
robert2013-02-05d01t15.flac:1315495391fa38ea632d684dcb742575
robert2013-02-05d01t16.flac:d14b27e4a3f834222281195665c453d6
robert2013-02-05d01t17.flac:13293a8e844fddc0cb9494f731566c1d
robert2013-02-05d01t18.flac:00f8258c606b4193bab6ebaf63c4628b
robert2013-02-05d02t01.flac:0dfa407676e8e283c3a1ebedfd1aa2ac
robert2013-02-05d02t02.flac:7ea463ee413ec0f15ac0c28678c0870c
robert2013-02-05d02t03.flac:566024483ce3353d6e717d2bc7eb8d22
robert2013-02-05d02t04.flac:fe7cd7cca6524de3fcd00dc8769ec600
robert2013-02-05d02t05.flac:0171022961dde34495dee763dacbd44f
robert2013-02-05d02t06.flac:c5b687fc4dfe54e0639c2136674f597d
robert2013-02-05d02t07.flac:d31801a3135d02ccfd2ac6c99e12ae52
robert2013-02-05d02t08.flac:5d06f04021e3fbe5bdf30278fefb3850
robert2013-02-05d02t09.flac:57b2f6080c70659477975bdea1ad6dd2
robert2013-02-05d02t10.flac:7531144697c29a443b5b9a35f79e2ec8
robert2013-02-05d02t11.flac:f2e241bf3b5bf26b35b3b69355bbf376
robert2013-02-05d02t12.flac:b1a79c574e17f68859d471a4f59918f7
robert2013-02-05d02t13.flac:6adf2ac81a2534f16ef310ce0a040b76
robert2013-02-05d02t14.flac:40e73b548f93756f20ac4ad5bcd5c68d
robert2013-02-05d02t15.flac:666a46ee82bcf08646444870043ade46
robert2013-02-05d02t16.flac:202db6b0fb323792c6d619d8379239d9

shntool

length expanded size cdr WAVE problems fmt ratio filename
6:37.68 70190780 B --- -- ---xx flac 0.4543 robert2013-02-05d01t01.flac
2:55.74 31044092 B --- -- ---xx flac 0.4664 robert2013-02-05d01t02.flac
1:34.37 16668668 B --- -- ---xx flac 0.3393 robert2013-02-05d01t03.flac
2:42.24 28633292 B --- -- ---xx flac 0.4881 robert2013-02-05d01t04.flac
3:16.49 34689692 B --- -- ---xx flac 0.3237 robert2013-02-05d01t05.flac
2:23.73 25396940 B --- -- ---xx flac 0.4539 robert2013-02-05d01t06.flac
1:45.23 18576140 B --- -- ---xx flac 0.3305 robert2013-02-05d01t07.flac
3:16.62 34720268 B --- -- ---xx flac 0.4092 robert2013-02-05d01t08.flac
1:22.65 14617724 B --- -- ---xx flac 0.3485 robert2013-02-05d01t09.flac
3:25.23 36216140 B --- -- ---xx flac 0.4552 robert2013-02-05d01t10.flac
3:25.58 36298460 B --- -- ---xx flac 0.4679 robert2013-02-05d01t11.flac
3:04.13 32488220 B --- -- ---xx flac 0.3698 robert2013-02-05d01t12.flac
3:07.66 33142076 B --- -- ---xx flac 0.4027 robert2013-02-05d01t13.flac
2:41.71 28567436 B --- -- ---xx flac 0.4238 robert2013-02-05d01t14.flac
3:15.37 34485068 B --- -- ---xx flac 0.3839 robert2013-02-05d01t15.flac
3:17.68 34910780 B --- -- ---xx flac 0.3692 robert2013-02-05d01t16.flac
4:25.31 46818956 B --- -- ---xx flac 0.3717 robert2013-02-05d01t17.flac
2:30.71 26627036 B --- -- ---xx flac 0.4331 robert2013-02-05d01t18.flac
5:59.51 63447596 B --- -- ---xx flac 0.3535 robert2013-02-05d02t01.flac
4:52.49 51624092 B --- -- ---xx flac 0.4111 robert2013-02-05d02t02.flac
2:36.19 27563132 B --- -- ---xx flac 0.3669 robert2013-02-05d02t03.flac
2:48.13 29665820 B --- -- ---xx flac 0.3721 robert2013-02-05d02t04.flac
2:23.00 25225244 B --- -- ---xx flac 0.4119 robert2013-02-05d02t05.flac
2:57.27 31286348 B --- -- ---xx flac 0.4149 robert2013-02-05d02t06.flac
3:25.26 36223196 B --- -- ---xx flac 0.3272 robert2013-02-05d02t07.flac
3:37.65 38431724 B --- -- ---xx flac 0.3948 robert2013-02-05d02t08.flac
5:21.29 56692652 B --- -- ---xx flac 0.3727 robert2013-02-05d02t09.flac
5:48.41 61483676 B --- -- ---xx flac 0.4051 robert2013-02-05d02t10.flac
3:34.07 37766108 B --- -- ---xx flac 0.4699 robert2013-02-05d02t11.flac
4:48.71 50970236 B --- -- ---xx flac 0.4297 robert2013-02-05d02t12.flac
4:19.74 45861692 B --- -- ---xx flac 0.4857 robert2013-02-05d02t13.flac
3:36.47 38212988 B --- -- ---xx flac 0.4290 robert2013-02-05d02t14.flac
4:00.37 42423068 B --- -- ---xx flac 0.4504 robert2013-02-05d02t15.flac
3:48.29 40287452 B --- -- ---xx flac 0.4475 robert2013-02-05d02t16.flac
119:09.73 1261256792 B 0.4098 (34 files)


























Checksumsrobert2013-02-05d01t01.flac:9fef43e5720d072fb8b169c5d496a50f
robert2013-02-05d01t02.flac:4647e859caa641af7d88e6aeb3e157e4
robert2013-02-05d01t03.flac:b55cf1a9364f3bce92d3c4a10ac1d2a1
robert2013-02-05d01t04.flac:07282c492f131418b9cd819fba5bc4de
robert2013-02-05d01t05.flac:03a348a7c923b9fb5403bed070e5dcee
robert2013-02-05d01t06.flac:61c799f84191305b084ee1f2b48d9734
robert2013-02-05d01t07.flac:ab2cece6e07b0a9807a1149e66c56798
robert2013-02-05d01t08.flac:2bb602d1d7a852c732f2c99c504e7d13
robert2013-02-05d01t09.flac:ac30b19bb68fecc5d07d18e7fd04cc02
robert2013-02-05d01t10.flac:159cd52fb2fd40a39db7045358f83388
robert2013-02-05d01t11.flac:309786cb409ef8e07c1c911c96da666f
robert2013-02-05d01t12.flac:1db6d0ca897138fcb22a53612a01b8a6
robert2013-02-05d01t13.flac:f6be293d17c5d4825cb4efed6434736d
robert2013-02-05d01t14.flac:3dcfbd2816b6cc3172f40b7f6871cf34
robert2013-02-05d01t15.flac:1315495391fa38ea632d684dcb742575
robert2013-02-05d01t16.flac:d14b27e4a3f834222281195665c453d6
robert2013-02-05d01t17.flac:13293a8e844fddc0cb9494f731566c1d
robert2013-02-05d01t18.flac:00f8258c606b4193bab6ebaf63c4628b
robert2013-02-05d02t01.flac:0dfa407676e8e283c3a1ebedfd1aa2ac
robert2013-02-05d02t02.flac:7ea463ee413ec0f15ac0c28678c0870c
robert2013-02-05d02t03.flac:566024483ce3353d6e717d2bc7eb8d22
robert2013-02-05d02t04.flac:fe7cd7cca6524de3fcd00dc8769ec600
robert2013-02-05d02t05.flac:0171022961dde34495dee763dacbd44f
robert2013-02-05d02t06.flac:c5b687fc4dfe54e0639c2136674f597d
robert2013-02-05d02t07.flac:d31801a3135d02ccfd2ac6c99e12ae52
robert2013-02-05d02t08.flac:5d06f04021e3fbe5bdf30278fefb3850
robert2013-02-05d02t09.flac:57b2f6080c70659477975bdea1ad6dd2
robert2013-02-05d02t10.flac:7531144697c29a443b5b9a35f79e2ec8
robert2013-02-05d02t11.flac:f2e241bf3b5bf26b35b3b69355bbf376
robert2013-02-05d02t12.flac:b1a79c574e17f68859d471a4f59918f7
robert2013-02-05d02t13.flac:6adf2ac81a2534f16ef310ce0a040b76
robert2013-02-05d02t14.flac:40e73b548f93756f20ac4ad5bcd5c68d
robert2013-02-05d02t15.flac:666a46ee82bcf08646444870043ade46
robert2013-02-05d02t16.flac:202db6b0fb323792c6d619d8379239d9
TypeOther
Last seederLast activity 29:56 ago
Size492.95 MB (516890578 Bytes)
Added2013-02-06 11:08:56
Views0
Hits146
Snatched20 times
Upped byzmanatl
Num files
[See full list]
35 files
Peers
[See full list]
0 seeders, 1 leecher = 1 peer total

Add a comment

mmwarchives 2013-02-06 13:40:18
A-MAN!! You around NYC area tonight?? JJ at the Underground, 107 & West End.
zmanatl 2013-02-06 15:13:31
I get him tomorrow in Atlanta. We shall compare notes! Get on stream if you can.
mmwarchives 2013-02-06 16:23:26
Copy that. Have fun!!

Add a comment


http://etree.org : http://db.etree.org : http://forums.etree.org : http://wiki.etree.org : Legal : RSS Feed

Contents designed & maintained by the etree.org volunteers
1998-2014, etree.org, except where noted. All Rights Reserved.
Read our terms of service and privacy guidelines