bt.etree.org
etree.org Community Bittorrent Tracker
ArtistOther
ShowEscape Vehicle Big Tex Cantina Decatur, Georgia 2/6/2013 (Schoeps CCM4V'S FOB)
Report this as
non-Trade-Friendly
Email us
Torrentescape2013-02-06.flac16.torrent (click to download)
Downloads asescape2013-02-06.flac16
Info hash1678ab202760deb487f6b6ff075d2a33bc5b5f15
DescriptionEscape Vehicle
Big Tex Cantina
Decatur, Georgia
2/6/2013

Source: Schoeps CCM4V'S(din)>Lunatec V2>Benchmark AD2K>
Sound Devices 722 (24/48)
FOB/DFC/KFC/ZFC/AARP Stage Lip, 7' High
DSP: Sound Devices 722>Sound Forge 9.0>CD Wave>flac(16)
Recorded By: Z-Man
Seeded By: Z-Man

Disc I 1st Set

01 Stone Me
02 West L A Fadeaway
03 Devil In Disguise
04 Mr. Charlie
05 Ophelia
06 Fine Company
07 Skint
08 Red Hot Mama
09 Post Card

Disc II 2nd Set

01 Stir It Up (For Bob Marley's Birthday, Cut Short)
02 *Can't Find My Way Home
03 Funky Bitch
04 Diggin' >
05 Brown-Eyed Women
06 Arlene >
07 Chilly Water
08 Dirty Mind
09 North

* With Mark Michaelson On Vocals

Flac Fingerprint

escape2013-02-06d01t01.flac:0d94f812cd08daf0edb705f5bbd75211
escape2013-02-06d01t02.flac:7b3474418ade45f2460331d589242661
escape2013-02-06d01t03.flac:dae6158ae83c959628991044913e98c1
escape2013-02-06d01t04.flac:5fad168caf26de649e98fab92ee7f5fa
escape2013-02-06d01t05.flac:c706e46e9c49633bbb77301d690d35ee
escape2013-02-06d01t06.flac:7928a1c7e8d9a79a141f24a1ecf8ef76
escape2013-02-06d01t07.flac:e4116d0ed480910f655dfc89878150ee
escape2013-02-06d01t08.flac:81bd24658260cb1eb452614e917ed58b
escape2013-02-06d01t09.flac:86a78ea8e43b09a707db2ca28d1f5cf1
escape2013-02-06d02t01.flac:f769dd2bdf50e304392c7737f2a13d2c
escape2013-02-06d02t02.flac:24de0445f79314afce87368f63c9eb0d
escape2013-02-06d02t03.flac:e7d5c9db18c2ba60eadfdf35129d988a
escape2013-02-06d02t04.flac:1a9ce61fcf47ccc381adf7717dbf944f
escape2013-02-06d02t05.flac:4fcd46d00c616901213c05c785fdf4ed
escape2013-02-06d02t06.flac:a95353fedda2da8a299b02da98a9f62a
escape2013-02-06d02t07.flac:8a095eb993199d7476d7e3d9ba514003
escape2013-02-06d02t08.flac:27a28dda031df0e7ff0e5c9433f41efe
escape2013-02-06d02t09.flac:3effa6e91e419d697a680948fee315fb

Shntool

length expanded size cdr WAVE problems fmt ratio filename
8:23.25 88788044 B --- -- ---xx flac 0.5378 escape2013-02-06d01t01.flac
9:42.39 102756572 B --- -- ---xx flac 0.4885 escape2013-02-06d01t02.flac
5:34.03 58924700 B --- -- ---xx flac 0.5461 escape2013-02-06d01t03.flac
5:07.61 54298316 B --- -- ---xx flac 0.5870 escape2013-02-06d01t04.flac
4:15.36 45066716 B --- -- ---xx flac 0.5846 escape2013-02-06d01t05.flac
10:19.07 109208108 B --- -- ---xx flac 0.5705 escape2013-02-06d01t06.flac
8:27.59 89573612 B --- -- ---xx flac 0.5498 escape2013-02-06d01t07.flac
8:05.74 85728092 B --- -- ---xx flac 0.6061 escape2013-02-06d01t08.flac
5:04.74 53799692 B --- -- ---xx flac 0.5869 escape2013-02-06d01t09.flac
2:03.67 21854828 B --- -- ---xx flac 0.3914 escape2013-02-06d02t01.flac
6:57.04 73568252 B --- -- ---xx flac 0.5163 escape2013-02-06d02t02.flac
5:49.10 61587164 B --- -- ---xx flac 0.5884 escape2013-02-06d02t03.flac
4:07.01 43573196 B --- -- ---xx flac 0.5665 escape2013-02-06d02t04.flac
7:27.16 78888476 B --- -- ---xx flac 0.5544 escape2013-02-06d02t05.flac
10:52.51 115132796 B --- -- ---xx flac 0.6407 escape2013-02-06d02t06.flac
8:14.42 87240428 B --- -- ---xx flac 0.6119 escape2013-02-06d02t07.flac
6:53.70 73017884 B --- -- ---xx flac 0.6140 escape2013-02-06d02t08.flac
8:14.67 87299228 B --- -- ---xx flac 0.5969 escape2013-02-06d02t09.flac
125:41.31 1330306104 B 0.5703 (18 files)












Checksumsescape2013-02-06d01t01.flac:0d94f812cd08daf0edb705f5bbd75211<br />
escape2013-02-06d01t02.flac:7b3474418ade45f2460331d589242661<br />
escape2013-02-06d01t03.flac:dae6158ae83c959628991044913e98c1<br />
escape2013-02-06d01t04.flac:5fad168caf26de649e98fab92ee7f5fa<br />
escape2013-02-06d01t05.flac:c706e46e9c49633bbb77301d690d35ee<br />
escape2013-02-06d01t06.flac:7928a1c7e8d9a79a141f24a1ecf8ef76<br />
escape2013-02-06d01t07.flac:e4116d0ed480910f655dfc89878150ee<br />
escape2013-02-06d01t08.flac:81bd24658260cb1eb452614e917ed58b<br />
escape2013-02-06d01t09.flac:86a78ea8e43b09a707db2ca28d1f5cf1<br />
escape2013-02-06d02t01.flac:f769dd2bdf50e304392c7737f2a13d2c<br />
escape2013-02-06d02t02.flac:24de0445f79314afce87368f63c9eb0d<br />
escape2013-02-06d02t03.flac:e7d5c9db18c2ba60eadfdf35129d988a<br />
escape2013-02-06d02t04.flac:1a9ce61fcf47ccc381adf7717dbf944f<br />
escape2013-02-06d02t05.flac:4fcd46d00c616901213c05c785fdf4ed<br />
escape2013-02-06d02t06.flac:a95353fedda2da8a299b02da98a9f62a<br />
escape2013-02-06d02t07.flac:8a095eb993199d7476d7e3d9ba514003<br />
escape2013-02-06d02t08.flac:27a28dda031df0e7ff0e5c9433f41efe<br />
escape2013-02-06d02t09.flac:3effa6e91e419d697a680948fee315fb<br />
TypeOther
Last seederLast activity 18 days, 04:06:09 ago
Size723.55 MB (758697579 Bytes)
Added2013-02-07 10:42:02
Views0
Hits151
Snatched19 times
Upped byzmanatl
Num files19 files
File List
[Hide list]
filenamesizemd5
escape2013-02-06d02t06.flac70.35 MBN/A
escape2013-02-06d01t06.flac59.42 MBN/A
escape2013-02-06d02t07.flac50.91 MBN/A
escape2013-02-06d02t09.flac49.69 MBN/A
escape2013-02-06d01t08.flac49.55 MBN/A
escape2013-02-06d01t02.flac47.87 MBN/A
escape2013-02-06d01t07.flac46.97 MBN/A
escape2013-02-06d01t01.flac45.53 MBN/A
escape2013-02-06d02t08.flac42.75 MBN/A
escape2013-02-06d02t05.flac41.71 MBN/A
escape2013-02-06d02t02.flac36.22 MBN/A
escape2013-02-06d02t03.flac34.56 MBN/A
escape2013-02-06d01t03.flac30.69 MBN/A
escape2013-02-06d01t04.flac30.40 MBN/A
escape2013-02-06d01t09.flac30.11 MBN/A
escape2013-02-06d01t05.flac25.13 MBN/A
escape2013-02-06d02t04.flac23.54 MBN/A
escape2013-02-06d02t01.flac8.16 MBN/A
escape2013-02-06.textfile.txt3.6 kBN/A
Peers
[See full list]
0 seeders, 1 leecher = 1 peer total

No comments yet

Add a comment


http://etree.org : http://db.etree.org : http://forums.etree.org : http://wiki.etree.org : Legal : RSS Feed

Contents designed & maintained by the etree.org volunteers
1998-2014, etree.org, except where noted. All Rights Reserved.
Read our terms of service and privacy guidelines